<?xml version="1.0" standalone="no"?>
<!DOCTYPE svg PUBLIC "-//W3C//DTD SVG 1.1//EN" "http://www.w3.org/Graphics/SVG/1.1/DTD/svg11.dtd">
<svg xmlns="http://www.w3.org/2000/svg">
<defs >
<font id="Marcellus" horiz-adv-x="931" ><font-face
    font-family="Marcellus"
    units-per-em="2048"
    panose-1="2 14 6 2 5 2 3 2 3 7"
    ascent="1995"
    descent="-573"
    alphabetic="0" />
<glyph unicode=" " glyph-name="space" horiz-adv-x="614" />
<glyph unicode="!" glyph-name="exclam" horiz-adv-x="502" d="M143 88Q143 110 151 129T174 163T207 186T250 195Q273 195 292 187T326 164T349 130T358 88Q358 42 327 11T250 -20Q227 -20 208 -12T174 11T152 45T143 88ZM231 328Q212 553 199 718T176 1001T159
1195T148 1319T139 1391T131 1430V1434H369V1430Q365 1416 361 1392T352 1320T341 1196T324 1001T301 718T268 328H231Z" />
<glyph unicode="&quot;" glyph-name="quotedbl" horiz-adv-x="672" d="M283 1432Q279 1425 276 1413T268 1378T259 1317T247 1222T229 1083T205 893H160Q146 1003 136 1083T118 1221T106 1316T96 1377T89 1413T82 1432V1434H283V1432ZM590 1432Q586 1425 583 1413T575
1378T566 1317T554 1222T536 1083T512 893H467Q453 1003 443 1083T426 1221T413 1316T403 1377T396 1413T389 1432V1434H590V1432Z" />
<glyph unicode="#" glyph-name="numbersign" horiz-adv-x="1085" d="M676 481H410V82H328V481H102V563H328V952H102V1034H328V1372H410V1034H676V1372H758V1034H983V952H758V563H983V481H758V82H676V481ZM410 563H676V952H410V563Z" />
<glyph unicode="$" glyph-name="dollar" horiz-adv-x="932" d="M438 0Q381 0 330 10T236 35T159 69T102 102L125 319H141Q153 272 179 230T243 155T329 104T434 84H438V629Q383 677 327 727T226 834T152 957T123 1104Q123 1174 149 1231T218 1330T319 1399T438
1432V1595H500V1434Q546 1432 585 1424T655 1405T709 1383T748 1366L741 1184H727Q719 1206 702 1233T657 1285T590 1327T500 1348V821Q557 769 615 716T721 605T799 484T829 350Q829 292 810 234T751 128T648 45T500 2V-203H438V0ZM655 287Q655 329 643 367T610
440T561 507T500 571V90Q572 109 613 161T655 287ZM281 1151Q281 1114 293 1079T326 1011T375 944T438 879V1346Q361 1333 321 1280T281 1151Z" />
<glyph unicode="%" glyph-name="percent" horiz-adv-x="1780" d="M223 1077Q223 1023 243 976T297 894T378 838T479 817Q534 817 580 837T661 893T715 976T735 1077Q735 1132 716 1180T662 1264T581 1320T479 1341Q425 1341 379 1321T298 1264T243 1180T223 1077ZM102
1079Q102 1157 132 1226T213 1346T332 1428T479 1458Q557 1458 626 1428T746 1347T828 1226T858 1079Q858 1001 828 933T747 813T626 732T479 702Q401 702 333 732T213 813T132 932T102 1079ZM1321 1470L1403 1417L440 -53L358 0L1321 1470ZM1042 344Q1042 290
1062 243T1116 161T1197 105T1298 84Q1353 84 1399 104T1480 160T1534 243T1554 344Q1554 398 1535 446T1481 530T1400 587T1298 608Q1244 608 1198 587T1117 530T1062 446T1042 344ZM922 346Q922 424 952 493T1033 613T1152 695T1298 725Q1376 725 1445 695T1565
614T1647 493T1677 346Q1677 268 1647 200T1566 80T1445 -1T1298 -31Q1221 -31 1153 -1T1033 80T952 199T922 346Z" />
<glyph unicode="&amp;" glyph-name="ampersand" horiz-adv-x="1575" d="M1284 537Q1247 338 1126 201Q1228 99 1335 13T1545 -138T1745 -238T1921 -274Q1953 -274 1985 -268V-291Q1973 -296 1954 -305T1906 -322T1839 -336T1751 -342Q1673 -342 1583 -310T1395
-220T1199 -83T1004 90Q917 31 813 -1T584 -33Q472 -33 383 -5T231 75T136 201T102 367Q102 455 135 523T221 647T344 747T485 834Q456 909 440 980T424 1116Q424 1195 449 1258T519 1366T622 1434T750 1458Q800 1458 844 1444T920 1403T972 1334T991 1239Q991
1171 963 1117T888 1018T781 934T657 858Q689 783 733 706T831 553T945 402T1071 258Q1119 323 1146 406T1174 588Q1174 672 1165 728T1145 825V829H1325V825Q1318 801 1315 772T1307 707T1298 629T1284 537ZM659 57Q741 57 815 79T952 143Q884 215 820 291T700
447T597 607T514 766Q467 734 427 699T356 622T309 531T291 422Q291 344 318 277T395 161T511 85T659 57ZM584 1169Q584 1111 597 1050T633 922Q682 953 724 986T798 1057T848 1140T866 1237Q866 1267 859 1293T836 1340T798 1372T743 1384Q663 1384 624 1327T584
1169Z" />
<glyph unicode="&apos;" glyph-name="quotesingle" horiz-adv-x="365" d="M283 1432Q279 1425 276 1413T268 1378T259 1317T247 1222T229 1083T205 893H160Q146 1003 136 1083T118 1221T106 1316T96 1377T89 1413T82 1432V1434H283V1432Z" />
<glyph unicode="(" glyph-name="parenleft" horiz-adv-x="616" d="M571 -258Q469 -185 383 -90T235 117T137 354T102 614Q102 750 138 877T238 1117T390 1326T582 1495L608 1468Q513 1394 448 1300T343 1096T284 864T266 614Q266 487 283 367T340 139T443 -64T598
-231L571 -258Z" />
<glyph unicode=")" glyph-name="parenright" horiz-adv-x="616" d="M20 -231Q111 -158 174 -64T277 138T334 367T352 614Q352 742 334 864T276 1095T170 1299T10 1468L37 1495Q140 1422 228 1326T380 1118T480 878T516 614Q516 480 481 355T384 117T235 -90T47
-258L20 -231Z" />
<glyph unicode="*" glyph-name="asterisk" horiz-adv-x="733" d="M430 1130L672 1004L631 934L399 1073L408 803H326L334 1075L102 934L61 1004L301 1130L61 1257L102 1327L334 1186L326 1458H408L399 1186L631 1327L672 1257L430 1130Z" />
<glyph unicode="+" glyph-name="plus" horiz-adv-x="1331" d="M717 651V160H614V651H123V754H614V1245H717V754H1208V651H717Z" />
<glyph unicode="," glyph-name="comma" horiz-adv-x="420" d="M102 88Q102 110 110 129T133 163T167 186T209 195Q232 195 251 186T285 160T308 121T317 74Q317 35 300 -11T254 -105T190 -199T117 -287L90 -264Q140 -205 170 -147T205 -20Q161 -18 132 12T102 88Z" />
<glyph unicode="-" glyph-name="hyphen" horiz-adv-x="840" d="M82 457V600H758V457H82Z" />
<glyph unicode="." glyph-name="period" horiz-adv-x="420" d="M102 88Q102 110 110 129T133 163T167 186T209 195Q232 195 251 187T285 164T308 130T317 88Q317 42 286 11T209 -20Q187 -20 168 -12T134 11T111 45T102 88Z" />
<glyph unicode="/" glyph-name="slash" horiz-adv-x="893" d="M780 1550L872 1505L113 -109L20 -63L780 1550Z" />
<glyph unicode="0" glyph-name="zero" horiz-adv-x="1651" d="M238 709Q238 627 259 551T317 409T408 287T527 193T668 133T825 111Q907 111 982 132T1123 193T1242 287T1333 408T1392 551T1413 709Q1413 832 1367 940T1242 1130T1055 1259T825 1307Q702 1307
595 1260T409 1131T284 941T238 709ZM82 713Q82 815 108 910T183 1087T300 1238T450 1354T628 1429T825 1456Q927 1456 1022 1430T1200 1355T1351 1238T1467 1088T1542 910T1569 713Q1569 610 1543 516T1468 338T1351 187T1200 71T1022 -4T825 -31Q723 -31 628
-5T451 70T300 187T184 338T109 515T82 713Z" />
<glyph unicode="1" glyph-name="one" horiz-adv-x="604" d="M186 4Q192 25 197 56T207 133T213 242T215 391V1042Q215 1127 203 1177T175 1254T141 1293T111 1315V1319L418 1434V1430Q412 1409 407 1378T397 1301T391 1191T389 1042V391Q389 306 391 243T397 133T406
56T418 4V0H186V4Z" />
<glyph unicode="2" glyph-name="two" horiz-adv-x="1090" d="M156 20Q171 39 203 71T277 148T367 248T463 367T555 503T634 655T688 819T709 993Q709 1088 687 1157T625 1272T534 1340T420 1362Q344 1362 283 1337T176 1277T102 1209T63 1157L49 1163L117 1366Q170
1390 216 1407T310 1436T408 1452T520 1458Q561 1458 607 1449T698 1420T783 1369T855 1292T905 1186T924 1049Q924 967 899 885T833 723T739 567T630 422T519 293T420 182H805Q842 182 877 183T943 188T995 198T1030 213H1034V0H156V20V20Z" />
<glyph unicode="3" glyph-name="three" horiz-adv-x="1032" d="M287 836Q341 843 399 863T507 921T589 1014T621 1149Q621 1194 608 1233T568 1303T498 1350T397 1368Q329 1368 275 1349T177 1301T102 1237T49 1167L35 1174L100 1380Q139 1396 179 1410T263 1435T358
1452T469 1458Q500 1458 538 1453T615 1434T692 1400T758 1346T805 1271T823 1171Q823 1101 795 1049T726 958T639 895T557 856Q617 851 679 831T793 771T876 665T909 506Q909 399 870 303T763 124T608 -29T423 -154T225 -249T33 -311L14 -260Q158 -224 282 -158T497
2T641 219T694 489Q694 572 670 628T608 717T522 765T426 780Q397 780 372 777T328 770Q306 766 287 760V836V836Z" />
<glyph unicode="4" glyph-name="four" horiz-adv-x="1174" d="M924 1458V1454Q919 1433 915 1402T909 1325T905 1216T903 1067V451Q994 453 1051 457T1143 469H1147V326H1143Q1109 332 1052 337T903 344Q904 271 906 216T912 121T921 52T932 4V0H692V4Q698 23
703 51T711 120T717 216T721 344H35V389L903 1458H924ZM721 451V1079L215 451H721Z" />
<glyph unicode="5" glyph-name="five" horiz-adv-x="954" d="M31 -174Q175 -138 295 -84T504 43T641 211T690 420Q690 534 644 614T519 745T332 820T102 846L231 1434H422Q507 1434 570 1434T680 1435T757 1437T809 1440H813V1223H809Q788 1229 757 1234T680 1243T571
1249T422 1251H274L221 1026Q302 1024 381 1011T532 970T665 901T772 803T842 674T868 512Q868 397 833 304T738 136T598 3T428 -99T241 -175T53 -229L31 -174Z" />
<glyph unicode="6" glyph-name="six" horiz-adv-x="1143" d="M1047 1602Q854 1527 714 1421T482 1185T347 906Q328 843 317 778Q396 835 471 862Q577 901 670 901Q743 901 818 874T954 790T1053 648T1092 449Q1092 360 1063 274T974 120T824 11T612 -31Q508 -31
414 5T247 117T133 306T90 578Q90 710 124 827T220 1048T368 1240T558 1405T780 1542T1024 1653L1047 1602ZM303 598Q303 441 327 335T397 165T504 73T643 45Q693 45 740 65T825 127T884 229T907 371Q907 459 880 535T809 666T708 754T592 786Q539 786 495 778T412
754T342 719Q323 707 307 695Q303 647 303 598Z" />
<glyph unicode="7" glyph-name="seven" horiz-adv-x="1001" d="M522 1251Q437 1251 374 1249T264 1243T187 1234T135 1223H131V1440H135Q156 1438 187 1437T264 1435T373 1434T522 1434H1042V1413L217 0H102L827 1251H522Z" />
<glyph unicode="8" glyph-name="eight" horiz-adv-x="1102" d="M934 1153Q934 1099 913 1052T856 964T774 886T678 817Q742 772 803 724T913 622T990 508T1020 377Q1020 298 988 225T896 94T749 3T551 -31Q427 -31 339 1T193 86T109 208T82 348Q82 417 107 475T178
583T285 677T422 760Q370 800 323 841T239 926T182 1017T160 1118Q160 1212 197 1276T291 1381T417 1440T549 1458Q630 1458 700 1438T822 1380T904 1284T934 1153ZM821 315Q821 374 791 427T713 528T604 623T479 717Q411 674 367 632T297 545T261 453T250 350Q250
280 273 224T337 129T434 68T555 45Q608 44 656 60T741 111T799 196T821 315ZM354 1176Q354 1131 375 1091T433 1012T517 936T618 860Q659 885 692 914T748 978T784 1055T797 1149Q797 1217 776 1262T721 1335T649 1373T573 1384Q531 1384 492 1371T422 1332T373
1267T354 1176Z" />
<glyph unicode="9" glyph-name="nine" horiz-adv-x="1135" d="M-102 -156Q6 -148 109 -115T308 -27T486 101T636 263T750 453T821 666Q779 640 743 622T668 591T586 573T487 567Q418 567 342 593T201 673T95 810T53 1008Q53 1086 83 1166T173 1311T326 1417T543
1458Q640 1458 730 1422T891 1313T1002 1128T1044 866Q1044 734 1003 606T888 361T711 146T483 -28T216 -148T-78 -201L-102 -156ZM600 672Q659 672 720 689T834 741Q839 769 840 798T842 858Q842 983 815 1080T743 1245T639 1347T514 1382Q464 1382 416 1363T330
1305T269 1206T246 1063Q246 980 271 909T342 785T453 702T600 672Z" />
<glyph unicode=":" glyph-name="colon" horiz-adv-x="481" d="M133 702Q133 724 141 744T164 778T197 800T240 809Q263 809 282 801T316 778T339 744T348 702Q348 656 317 625T240 594Q217 594 198 602T164 625T142 659T133 702ZM133 88Q133 110 141 129T164 163T197
186T240 195Q263 195 282 187T316 164T339 130T348 88Q348 42 317 11T240 -20Q217 -20 198 -12T164 11T142 45T133 88Z" />
<glyph unicode=";" glyph-name="semicolon" horiz-adv-x="481" d="M133 88Q133 110 141 129T164 163T197 186T240 195Q263 195 282 186T316 160T339 121T348 74Q348 35 331 -11T285 -105T220 -199T147 -287L121 -264Q170 -205 200 -147T236 -20Q192 -18 163 12T133
88ZM133 702Q133 724 141 744T164 778T197 800T240 809Q263 809 282 801T316 778T339 744T348 702Q348 656 317 625T240 594Q217 594 198 602T164 625T142 659T133 702Z" />
<glyph unicode="&lt;" glyph-name="less" horiz-adv-x="1331" d="M1106 1145L1143 1055L336 702L1143 350L1106 260L182 664V741L1106 1145Z" />
<glyph unicode="=" glyph-name="equal" horiz-adv-x="1331" d="M164 846V948H1167V846H164ZM164 457V559H1167V457H164Z" />
<glyph unicode="&gt;" glyph-name="greater" horiz-adv-x="1331" d="M1149 739V666L225 260L188 350L995 702L188 1055L225 1145L1149 739Z" />
<glyph unicode="?" glyph-name="question" horiz-adv-x="817" d="M225 88Q225 110 233 129T256 163T289 186T332 195Q355 195 374 187T408 164T431 130T440 88Q440 42 409 11T332 -20Q309 -20 290 -12T256 11T234 45T225 88ZM340 1374Q286 1374 241 1357T163 1315T109
1260T80 1208H61L96 1391Q112 1398 136 1409T194 1431T268 1450T360 1458Q428 1458 495 1441T615 1386T702 1287T735 1139Q735 1066 707 1001T635 873T543 749T450 622T379 484T350 328H303Q303 420 321 496T368 638T429 764T490 883T536 1004T555 1137Q555 1201
537 1246T489 1319T421 1361T340 1374Z" />
<glyph unicode="@" glyph-name="at" horiz-adv-x="2013" d="M668 434Q668 499 695 547T766 628T867 682T985 715T1105 732T1214 739V780Q1214 835 1200 874T1161 940T1101 978T1022 991Q992 991 963 987T903 971T838 940T764 889L756 893L811 1010Q867 1034 919
1043T1034 1053Q1120 1053 1181 1032T1282 974T1339 888T1358 782V352Q1358 304 1390 277T1475 250Q1540 250 1598 288T1699 393T1768 552T1794 752Q1794 891 1743 1007T1599 1207T1379 1337T1098 1384Q918 1384 769 1323T513 1153T346 893T287 563Q287 394 347
256T516 20T772 -132T1098 -186Q1175 -186 1251 -175T1402 -140T1550 -75T1696 23L1745 -35Q1595 -147 1432 -203T1092 -260Q873 -260 696 -196T394 -20T201 247T133 584Q133 701 166 811T260 1019T407 1197T600 1336T831 1426T1094 1458Q1269 1458 1414 1406T1662
1260T1823 1033T1880 741Q1880 628 1849 526T1763 345T1630 221T1460 174Q1374 174 1319 206T1241 283Q1223 266 1195 247T1132 213T1056 187T969 176Q825 176 747 243T668 434ZM1214 674Q1139 673 1070 665T948 633T863 562T831 440Q831 344 880 293T1014 242Q1054
242 1086 253T1144 280T1186 317T1214 356V674Z" />
<glyph unicode="A" glyph-name="A" horiz-adv-x="1389" d="M1135 0V4Q1137 9 1138 19T1139 37Q1139 68 1131 105T1098 199L977 471Q921 473 828 473T627 473Q548 473 475 473T342 471L227 207Q212 170 195 126T178 37Q178 24 180 16T184 4V0H-20V4Q-2 23 25 71T84
193L657 1464H737L1280 242Q1299 199 1319 159T1358 86T1390 32T1409 4V0H1135ZM487 559Q545 559 606 559T725 560T838 561T936 563L655 1198L379 559H487Z" />
<glyph unicode="B" glyph-name="B" horiz-adv-x="1149" d="M172 1042Q172 1127 170 1190T164 1300T155 1378T143 1430V1434Q163 1433 185 1433Q204 1432 227 1432T276 1432Q312 1432 373 1439T532 1446Q622 1446 698 1423T829 1355T916 1247T948 1100Q948 1031
929 977T876 882T793 814T686 770Q771 757 841 727T961 650T1039 543T1067 406Q1067 195 928 90T512 -16Q482 -16 442 -14T361 -8T279 -3T209 0H143V4Q149 25 154 56T164 133T170 242T172 391V1042ZM539 709Q471 709 425 704T354 694V391Q354 274 358 198T369 74Q407
69 445 65T506 61Q693 61 779 144T866 401Q866 469 846 525T785 623T683 686T539 709ZM354 784Q382 781 404 781T451 780Q519 780 575 799T670 858T732 955T754 1092Q754 1157 738 1210T691 1300T613 1358T508 1378Q470 1378 442 1375T393 1368Q370 1364 354 1358V784Z"
/>
<glyph unicode="C" glyph-name="C" horiz-adv-x="1386" d="M1303 1214L1294 1210Q1216 1282 1107 1325T866 1368Q740 1368 635 1329T455 1214T337 1030T295 782Q295 629 335 497T454 267T651 115T928 59Q985 59 1042 71T1151 106T1250 163T1335 240L1346 233L1266
29Q1191 0 1101 -15T918 -31Q733 -31 580 22T316 174T144 409T82 715Q82 810 106 902T178 1077T294 1229T451 1350T646 1429T877 1458Q1070 1458 1235 1399L1303 1214Z" />
<glyph unicode="D" glyph-name="D" horiz-adv-x="1462" d="M362 1348Q360 1236 358 1131Q357 1086 357 1039T356 947T355 860T354 786Q354 719 355 624T357 429T362 237T369 84Q383 82 406 80T456 76T507 73T549 72Q619 72 692 81T834 117T963 188T1069 306T1141
479T1167 719Q1167 872 1130 991T1022 1193T845 1317T602 1360Q575 1360 541 1359T474 1356T411 1352T362 1348ZM143 1438Q166 1437 186 1436Q203 1435 221 1435T250 1434Q269 1434 313 1436T415 1440T533 1444T649 1446Q794 1446 925 1410T1155 1292T1312 1077T1370
750Q1370 611 1340 500T1254 304T1123 159T954 59T756 2T539 -16Q499 -16 443 -14T329 -8T222 -3T143 0V4Q149 25 154 56T164 133T170 242T172 391V1042Q172 1127 170 1191T164 1302T155 1381T143 1434V1438Z" />
<glyph unicode="E" glyph-name="E" horiz-adv-x="1004" d="M143 1434Q268 1434 391 1435T618 1437T794 1442T893 1450L844 1317Q811 1326 767 1333Q729 1339 675 1344T549 1350Q525 1350 492 1349T427 1345Q391 1343 354 1341V795Q457 796 540 801T681 811Q749
817 801 825L770 680Q701 689 629 697Q567 704 494 709T354 715V88Q472 88 571 98T744 121Q830 135 901 154L872 -8Q860 -7 836 -6T783 -4T721 -3T659 -2T608 -1T575 0H143V4Q149 25 154 56T164 133T170 242T172 391V1042Q172 1127 170 1190T164 1300T155 1378T143
1430V1434V1434Z" />
<glyph unicode="F" glyph-name="F" horiz-adv-x="954" d="M354 391Q354 306 356 243T362 133T371 56T383 4V0H143V4Q149 25 154 56T164 133T170 242T172 391V1042Q172 1127 170 1190T164 1300T155 1378T143 1430V1434Q226 1434 311 1434T476 1435T628 1437T758
1440T856 1444T913 1450L864 1317Q831 1326 787 1333Q749 1339 695 1344T569 1350Q545 1350 509 1349T438 1345Q398 1343 354 1341V836Q457 837 543 842T691 852Q763 858 821 866L791 721Q716 730 639 738Q573 745 497 750T354 756V391Z" />
<glyph unicode="G" glyph-name="G" horiz-adv-x="1520" d="M1405 168Q1405 157 1403 145T1391 125Q1346 91 1294 63T1180 13T1049 -19T897 -31Q715 -31 565 22T308 174T141 409T82 715Q82 810 106 902T178 1077T294 1229T451 1350T646 1429T877 1458Q925 1458
975 1454T1074 1441T1168 1420T1255 1393L1323 1208L1315 1204Q1276 1239 1225 1269T1116 1321T995 1355T866 1368Q740 1368 635 1329T455 1214T337 1030T295 782Q295 629 335 498T454 271T651 121T928 66Q998 66 1053 77T1146 104T1203 140T1223 176V215Q1223
285 1221 336T1215 424T1206 489T1194 539V543H1434V539Q1428 518 1423 490T1413 422T1407 331T1405 209V168Z" />
<glyph unicode="H" glyph-name="H" horiz-adv-x="1489" d="M1135 686Q1095 687 1035 687T905 689T758 690T608 691T469 691T354 688V391Q354 306 356 243T362 133T371 56T383 4V0H143V4Q149 25 154 56T164 133T170 242T172 391V1042Q172 1127 170 1190T164 1300T155
1378T143 1430V1434H383V1430Q377 1409 372 1378T363 1301T357 1191T354 1042V786Q406 784 472 784T610 783T756 785T900 787T1030 791T1135 795V1042Q1135 1127 1133 1190T1127 1300T1118 1378T1106 1430V1434H1346V1430Q1340 1409 1335 1378T1325 1301T1319 1191T1317
1042V391Q1317 306 1319 243T1325 133T1334 56T1346 4V0H1106V4Q1112 25 1117 56T1126 133T1132 242T1135 391V686Z" />
<glyph unicode="I" glyph-name="I" horiz-adv-x="543" d="M152 4Q158 25 163 56T172 133T178 242T180 391V1042Q180 1127 178 1190T172 1300T163 1378T152 1430V1434H391V1430Q385 1409 380 1378T371 1301T365 1191T362 1042V391Q362 306 364 243T370 133T379
56T391 4V0H152V4Z" />
<glyph unicode="J" glyph-name="J" horiz-adv-x="510" d="M346 207Q346 72 319 -27T242 -202T125 -339T-23 -457L-41 -432Q28 -369 68 -301T130 -156T158 11T164 207V1042Q164 1127 162 1190T156 1300T147 1378T135 1430V1434H375V1430Q369 1409 364 1378T354
1301T348 1191T346 1042V207Z" />
<glyph unicode="K" glyph-name="K" horiz-adv-x="1323" d="M143 4Q149 25 154 56T164 133T170 242T172 391V1042Q172 1127 170 1190T164 1300T155 1378T143 1430V1434H383V1430Q377 1409 372 1378T363 1301T357 1191T354 1042V819L938 1296Q1036 1376 1036 1434H1317V1430Q1258
1416 1198 1377T1069 1280L553 848L1174 166Q1213 126 1240 100T1289 56T1327 27T1364 4V0H1071Q1067 9 1058 23T1036 52T1009 83T981 113L354 801V391Q354 306 356 243T362 133T371 56T383 4V0H143V4Z" />
<glyph unicode="L" glyph-name="L" horiz-adv-x="942" d="M354 88Q472 88 571 98T744 121Q830 135 901 154L872 -8Q860 -7 836 -6T783 -4T721 -3T659 -2T608 -1T575 0H143V4Q149 25 154 56T164 133T170 242T172 391V1042Q172 1127 170 1190T164 1300T155 1378T143
1430V1434H383V1430Q377 1409 372 1378T363 1301T357 1191T354 1042V88Z" />
<glyph unicode="M" glyph-name="M" horiz-adv-x="2085" d="M72 4Q83 20 97 51T119 131Q130 201 143 288T171 472T200 668T228 866T254 1054T277 1220T293 1350T303 1434H430L1059 258L1683 1434H1778L1942 246Q1949 190 1957 150T1973 82T1988 35T2003 4V0H1751V4Q1756
15 1760 40T1765 100Q1765 113 1764 126T1761 156L1634 1114L1044 4L975 12L381 1124Q346 887 320 686Q309 600 298 515T279 355T265 225T260 141Q260 107 262 81T266 37Q269 16 272 0H72V4Z" />
<glyph unicode="N" glyph-name="N" horiz-adv-x="1513" d="M199 1434L1229 338V1042Q1229 1127 1227 1190T1221 1300T1212 1378T1200 1430V1434H1378V1430Q1372 1409 1367 1378T1358 1301T1352 1191T1350 1042V-20H1315L285 1075V391Q285 306 287 243T293 133T302
56T313 4V0H135V4Q141 25 146 56T156 133T162 242T164 391V1042Q164 1127 162 1190T156 1300T147 1378T135 1430V1434H199Z" />
<glyph unicode="O" glyph-name="O" horiz-adv-x="1651" d="M797 1458Q964 1458 1105 1404T1350 1251T1511 1014T1569 709Q1569 614 1547 522T1483 348T1378 197T1237 77T1061 -2T854 -31Q687 -31 546 22T301 174T140 409T82 715Q82 810 104 902T168 1077T272 1229T413
1350T589 1429T797 1458ZM854 59Q965 59 1057 99T1215 215T1319 400T1356 649Q1356 803 1321 934T1215 1162T1041 1313T797 1368Q686 1368 594 1329T436 1214T332 1030T295 782Q295 629 330 497T435 267T610 115T854 59Z" />
<glyph unicode="P" glyph-name="P" horiz-adv-x="1049" d="M354 635Q452 617 533 631T673 693T764 822T797 1020Q797 1101 780 1167T730 1280T645 1352T526 1378Q483 1378 451 1375T397 1367Q371 1362 354 1356V635ZM143 1434Q163 1432 185 1430Q204 1428 227
1428T276 1427Q315 1427 381 1436T551 1446Q647 1446 728 1418T870 1336T963 1205T997 1028Q997 895 944 798T802 641T597 560T354 557V391Q354 306 356 243T362 133T371 56T383 4V0H143V4Q149 25 154 56T164 133T170 242T172 391V1042Q172 1127 170 1190T164 1300T155
1378T143 1430V1434Z" />
<glyph unicode="Q" glyph-name="Q" horiz-adv-x="1651" d="M797 1458Q964 1458 1105 1404T1350 1251T1511 1014T1569 709Q1569 596 1538 489T1448 289T1304 125T1110 12Q1140 -44 1172 -102T1245 -217T1338 -326T1458 -421T1614 -497T1815 -547Q1814 -550 1812
-554Q1810 -558 1808 -562T1804 -573Q1673 -569 1562 -541T1357 -468T1186 -367T1048 -253T939 -137T858 -31Q689 -31 547 22T302 174T140 409T82 715Q82 810 104 902T168 1077T272 1229T413 1350T589 1429T797 1458ZM854 59Q965 59 1057 99T1215 215T1319 400T1356
649Q1356 803 1321 934T1215 1162T1041 1313T797 1368Q686 1368 594 1329T436 1214T332 1030T295 782Q295 629 330 497T435 267T610 115T854 59Z" />
<glyph unicode="R" glyph-name="R" horiz-adv-x="1210" d="M354 391Q354 306 356 243T362 133T371 56T383 4V0H143V4Q149 25 154 56T163 133T169 242T172 391V1042Q172 1127 170 1190T164 1300T155 1377T143 1430V1434L185 1430Q204 1428 227 1428T276 1427Q315
1427 381 1436T551 1446Q647 1446 728 1420T870 1344T963 1222T997 1057Q997 985 979 924T927 812T846 724T741 659L1092 166Q1118 129 1140 102T1183 56T1223 24T1262 4V0H973Q970 19 954 50T915 113L561 612Q538 610 515 609T468 607Q440 607 412 609T354 616V391ZM354
694Q381 688 409 686T463 683Q538 683 600 705T705 774T773 888T797 1049Q797 1124 780 1185T730 1288T645 1354T526 1378Q457 1378 416 1371T354 1356V694Z" />
<glyph unicode="S" glyph-name="S" horiz-adv-x="932" d="M741 1206H719Q711 1229 694 1258T648 1312T579 1355T483 1372Q434 1372 396 1357T333 1315T294 1251T281 1169Q281 1097 321 1032T423 902T555 774T687 641T788 497T829 334Q829 269 807 204T737 86T616
2T440 -31Q383 -31 332 -21T237 5T159 39T102 72L125 293H150Q161 246 186 204T247 129T331 77T434 57Q485 57 525 72T595 115T639 181T655 264Q655 327 632 380T572 482T487 575T389 665T292 759T207 861T146 978T123 1116Q123 1195 153 1258T234 1367T349 1436T481
1460Q531 1460 573 1452T648 1433T707 1411T748 1393L741 1206Z" />
<glyph unicode="T" glyph-name="T" horiz-adv-x="1223" d="M520 1346Q402 1346 307 1336T143 1313Q63 1298 0 1280L29 1442Q41 1441 65 1440T118 1438T180 1437T242 1436T293 1435T326 1434H897Q907 1434 929 1434T981 1435T1042 1436T1104 1438T1158 1440T1194
1442L1223 1280Q1159 1298 1079 1313Q1010 1325 915 1335T702 1346V391Q702 306 704 243T710 133T719 56T731 4V0H492V4Q498 25 503 56T512 133T518 242T520 391V1346Z" />
<glyph unicode="U" glyph-name="U" horiz-adv-x="1454" d="M1169 1042Q1169 1127 1167 1190T1161 1300T1152 1378T1141 1430V1434H1319V1430Q1313 1409 1308 1378T1299 1301T1293 1191T1290 1042V502Q1290 359 1249 258T1135 93T960 -1T737 -31Q616 -31 512 -3T330
87T208 249T164 492V1042Q164 1127 162 1190T156 1300T147 1378T135 1430V1434H375V1430Q369 1409 364 1378T354 1301T348 1191T346 1042V481Q346 362 381 285T475 162T607 98T758 80Q835 80 909 98T1040 161T1133 284T1169 481V1042Z" />
<glyph unicode="V" glyph-name="V" horiz-adv-x="1348" d="M233 1434V1430Q231 1425 230 1415T229 1397Q229 1366 237 1329T270 1235L713 236L1141 1227Q1156 1264 1173 1308T1190 1397Q1190 1409 1188 1417T1184 1430V1434H1389V1430Q1370 1411 1343 1362T1284
1241L711 -31H631L88 1192Q69 1235 49 1275T10 1347T-22 1402T-41 1430V1434H233Z" />
<glyph unicode="W" glyph-name="W" horiz-adv-x="2077" d="M1079 1245L1479 274L1868 1227Q1891 1286 1902 1327T1913 1397Q1913 1406 1912 1415T1909 1430V1434H2107V1430Q2087 1408 2064 1360T2009 1241L1475 -31H1399L1010 913L655 -31H580L90 1192Q72 1235
54 1275T19 1347T-11 1401T-31 1430V1434H246V1430Q244 1419 244 1413T244 1399Q244 1365 251 1327T281 1235L657 285L1016 1241L1079 1245Z" />
<glyph unicode="X" glyph-name="X" horiz-adv-x="1430" d="M678 627L324 178Q304 154 285 129T251 79T227 35T217 0H23V4Q45 23 85 62T172 160L612 713L160 1307Q123 1355 87 1387T33 1430V1434H346Q346 1422 349 1403T363 1359T390 1302T436 1235L725 856L1044
1255Q1062 1277 1079 1303T1110 1353T1132 1399T1141 1434H1335V1430Q1325 1422 1313 1411T1286 1384T1251 1346T1208 1294L791 768L1257 158Q1305 96 1346 56T1407 4V0H1096Q1096 23 1077 76T1006 199L678 627Z" />
<glyph unicode="Y" glyph-name="Y" horiz-adv-x="1272" d="M727 688V391Q727 306 729 243T735 133T744 56T756 4V0H516V4Q522 25 527 56T536 133T542 242T545 391V668L98 1276Q75 1307 53 1333T10 1378T-26 1411T-51 1430V1434H252Q252 1411 271 1359T342 1235L670
786L991 1255Q1008 1280 1025 1306T1056 1356T1078 1400T1087 1434H1282V1430Q1260 1411 1223 1374T1143 1274L727 688Z" />
<glyph unicode="Z" glyph-name="Z" horiz-adv-x="1315" d="M297 88H725Q842 88 941 98T1115 121Q1201 135 1272 154L1223 -8Q1211 -7 1187 -6T1134 -4T1072 -3T1010 -2T959 -1T926 0H23V25L997 1346H621Q503 1346 404 1336T230 1313Q144 1298 74 1280L143 1442Q155
1441 179 1440T233 1438T295 1437T356 1436T407 1435T440 1434H1272V1407L297 88Z" />
<glyph unicode="[" glyph-name="bracketleft" horiz-adv-x="637" d="M152 -252Q158 -231 163 -200T172 -123T178 -14T180 135V1104Q180 1189 178 1252T172 1362T163 1439T152 1491V1495H180Q264 1495 325 1495T432 1496T508 1498T562 1501T602 1505T637 1511L588
1378Q557 1387 516 1394Q481 1400 430 1405T313 1411V-172Q376 -171 421 -169T498 -164T550 -157T585 -149T610 -139T631 -129L608 -264Q596 -263 572 -262T519 -260T457 -259T395 -258T344 -257T311 -256H152V-252Z" />
<glyph unicode="\" glyph-name="backslash" horiz-adv-x="893" d="M872 -63L780 -109L20 1505L113 1550L872 -63Z" />
<glyph unicode="]" glyph-name="bracketright" horiz-adv-x="637" d="M324 1495H485V1491Q479 1470 474 1439T465 1362T459 1253T457 1104V135Q457 50 459 -13T465 -123T474 -200T485 -252V-256H326Q316 -256 291 -256T234 -257T166 -258T97 -260T38 -262T0 -264L41
-129Q57 -138 76 -145T126 -157T204 -167T324 -172V1411Q255 1410 197 1405T94 1394Q43 1387 0 1378L41 1511Q62 1507 80 1504T126 1499T201 1496T324 1495Z" />
<glyph unicode="^" glyph-name="asciicircum" horiz-adv-x="1024" d="M510 1290L184 948L150 973L457 1434H569L877 973L842 948L516 1290H510Z" />
<glyph unicode="_" glyph-name="underscore" horiz-adv-x="1024" d="M0 -365H1024V-483H0V-365Z" />
<glyph unicode="`" glyph-name="grave" horiz-adv-x="1024" d="M375 1477Q432 1424 494 1372Q547 1327 612 1276T743 1182L721 1145Q686 1163 649 1179T575 1212T501 1242T433 1268Q356 1296 283 1321L375 1477Z" />
<glyph unicode="a" glyph-name="a" horiz-adv-x="1059" d="M74 295Q74 374 106 432T193 531T316 597T459 637T605 657T737 664V715Q737 781 720 829T672 908T598 955T502 971Q466 971 431 965T359 945T280 907T190 846L180 852L248 993Q281 1008 313 1017T378
1033T445 1041T518 1044Q623 1044 697 1019T819 949T889 845T911 717V391Q911 306 913 243T919 133T928 56T940 4V0H719V4Q724 20 726 40T731 88Q710 70 682 51T617 17T536 -8T438 -18Q264 -18 169 63T74 295ZM737 586Q646 585 562 576T414 536T311 451T272 303Q272
185 331 123T494 61Q542 61 581 74T651 108T703 153T735 201Q737 239 737 285T737 391V586Z" />
<glyph unicode="b" glyph-name="b" horiz-adv-x="1196" d="M328 973Q391 1007 463 1024T610 1042Q721 1042 815 1005T979 898T1087 730T1126 508Q1126 405 1091 310T985 142T810 26T567 -18Q551 -18 525 -17T466 -13T398 -5T328 8Q280 19 232 32T139 63Q143 78
146 113T150 190T153 270T154 334V1104Q154 1189 152 1252T146 1362T137 1439T125 1491V1495H356V1491Q350 1470 345 1439T336 1362T330 1253T328 1104V973ZM328 350Q328 269 329 216T334 131Q376 99 448 77T606 55Q677 55 736 83T837 164T902 293T926 465Q926
573 906 665T844 825T737 931T582 969Q506 969 440 938T328 848V350Z" />
<glyph unicode="c" glyph-name="c" horiz-adv-x="1034" d="M985 213L911 35Q884 23 849 13T777 -4T701 -14T629 -18Q508 -18 406 17T229 121T112 288T70 514Q70 627 113 723T234 891T417 1002T645 1042Q701 1042 765 1033T879 1008L950 838L938 831Q913 862 879
887T803 931T715 959T621 969Q543 969 479 942T369 862T298 735T272 563Q272 455 296 362T369 201T491 94T664 55Q710 55 755 66T841 99T916 151T973 219L985 213Z" />
<glyph unicode="d" glyph-name="d" horiz-adv-x="1237" d="M610 1042Q651 1042 692 1035T772 1015T846 983T909 940V1104Q909 1189 907 1252T901 1362T892 1439T881 1491V1495H1112V1491Q1106 1470 1101 1439T1092 1362T1086 1253T1083 1104V391Q1083 306 1085
243T1091 133T1100 56T1112 4V0H891V4Q894 12 896 27T901 66Q850 34 773 8T594 -18Q475 -18 378 19T213 125T107 292T70 514Q70 627 110 723T222 891T393 1002T610 1042ZM909 764Q869 869 795 919T627 969Q549 969 483 942T370 862T297 735T270 563Q270 455 294
362T364 201T480 94T639 55Q686 55 727 66T802 94T862 131T905 172Q907 215 908 270T909 391V764Z" />
<glyph unicode="e" glyph-name="e" horiz-adv-x="1110" d="M602 -18Q491 -18 394 17T225 119T112 286T70 514Q70 627 108 723T213 891T369 1002T563 1042Q666 1042 754 1007T906 904T1008 737T1049 510Q936 512 823 513T588 514Q501 514 419 513T270 510Q276 406
302 322T375 179T488 87T639 55Q697 55 748 68T842 106T917 162T973 233L985 227L911 49Q857 21 782 2T602 -18ZM469 592Q569 592 669 592T852 596Q843 683 818 752T754 869T662 943T545 969Q487 969 439 944T354 870T296 753T270 594Q315 592 365 592T469 592Z"
/>
<glyph unicode="f" glyph-name="f" horiz-adv-x="655" d="M524 1432Q499 1432 471 1423T418 1390T378 1324T362 1214V1024Q415 1025 461 1027T545 1031T607 1035T643 1040L625 938Q590 939 549 941Q514 943 466 944T362 946V391Q362 306 364 243T370 133T379 56T391
4V0H160V4Q166 25 171 56T180 133T186 242T188 391V946L20 940V1028Q51 1026 94 1025T188 1024V1192Q188 1269 210 1328T273 1428T369 1490T492 1511Q529 1511 561 1506T618 1494T663 1480T696 1466L735 1294L723 1288Q707 1312 688 1337T645 1384T592 1418T524
1432Z" />
<glyph unicode="g" glyph-name="g" horiz-adv-x="1196" d="M541 -457Q622 -457 678 -440T770 -391T826 -317T855 -221T866 -110T868 12V45Q819 19 750 1T594 -18Q475 -18 378 19T213 125T107 292T70 514Q70 627 106 724T209 892T368 1003T573 1044Q621 1044 661
1036T735 1015T800 984T860 946L850 1020V1024H1071V1020Q1065 999 1060 968T1051 891T1045 782T1042 633V-47Q1042 -139 1018 -226T935 -382T780 -491T541 -532Q491 -532 440 -523T343 -500T260 -470T201 -442L170 -250L186 -246Q210 -298 251 -337T342 -403T443
-443T541 -457ZM639 55Q711 55 769 79T868 135V633Q868 689 867 734T866 817Q842 854 811 882T744 930T671 960T598 971Q522 971 461 943T358 863T293 735T270 563Q270 455 294 362T364 201T480 94T639 55Z" />
<glyph unicode="h" glyph-name="h" horiz-adv-x="1163" d="M842 674Q842 806 789 868T647 930Q614 930 574 917T491 880T406 827T328 762V391Q328 306 330 243T336 133T345 56T356 4V0H125V4Q131 25 136 56T145 133T151 242T154 391V1104Q154 1189 152 1252T146
1362T137 1439T125 1491V1495H356V1491Q350 1470 345 1439T336 1362T330 1253T328 1104V848Q368 884 416 919T517 982T623 1027T729 1044Q807 1044 861 1017T950 946T1000 846T1016 731V391Q1016 306 1018 243T1024 133T1033 56T1044 4V0H813V4Q819 25 824 56T833
133T839 242T842 391V674Z" />
<glyph unicode="i" glyph-name="i" horiz-adv-x="494" d="M160 633Q160 718 158 781T152 891T143 968T131 1020V1024H362V1020Q356 999 351 968T342 891T336 782T334 633V391Q334 306 336 243T342 133T351 56T362 4V0H131V4Q137 25 142 56T151 133T157 242T160
391V633ZM139 1327Q139 1349 147 1368T170 1402T203 1425T246 1434Q269 1434 288 1426T322 1403T345 1369T354 1327Q354 1281 323 1250T246 1219Q223 1219 204 1227T170 1250T148 1284T139 1327Z" />
<glyph unicode="j" glyph-name="j" horiz-adv-x="485" d="M156 633Q156 718 154 781T148 891T139 968T127 1020V1024H358V1020Q352 999 347 968T338 891T332 782T330 633V104Q330 -31 301 -130T220 -305T99 -441T-51 -559L-70 -535Q-1 -472 43 -404T112 -259T146
-92T156 104V633ZM135 1327Q135 1349 143 1368T166 1402T199 1425T242 1434Q265 1434 284 1426T318 1403T341 1369T350 1327Q350 1281 319 1250T242 1219Q219 1219 200 1227T166 1250T144 1284T135 1327Z" />
<glyph unicode="k" glyph-name="k" horiz-adv-x="995" d="M154 1104Q154 1189 152 1252T146 1362T137 1439T125 1491V1495H356V1491Q350 1470 345 1439T336 1362T330 1253T328 1104V606L655 899Q741 974 741 1024H973V1020Q947 1012 924 1000T877 970T828 932T772
883L479 616L881 141Q899 119 920 97T962 55T1003 22T1040 4V0H750Q750 26 737 54T688 125L328 553V391Q328 306 330 243T336 133T345 56T356 4V0H125V4Q131 25 136 56T145 133T151 242T154 391V1104Z" />
<glyph unicode="l" glyph-name="l" horiz-adv-x="494" d="M160 1104Q160 1189 158 1252T152 1362T143 1439T131 1491V1495H362V1491Q356 1470 351 1439T342 1362T336 1253T334 1104V391Q334 306 336 243T342 133T351 56T362 4V0H131V4Q137 25 142 56T151 133T157
242T160 391V1104Z" />
<glyph unicode="m" glyph-name="m" horiz-adv-x="1810" d="M821 674Q821 740 808 788T769 867T707 914T627 930Q597 930 560 918T484 886T405 838T330 780Q328 748 328 712T328 633V391Q328 306 330 243T336 133T345 56T356 4V0H125V4Q131 25 136 56T145 133T151
242T154 391V633Q154 718 152 781T146 891T137 968T125 1020V1024H356V1020Q348 997 344 962T334 872Q374 904 420 935T514 990T612 1029T709 1044Q766 1044 810 1029T887 988T942 927T977 852Q1018 887 1066 921T1166 983T1271 1027T1376 1044Q1454 1044 1508
1017T1597 946T1647 846T1663 731V391Q1663 306 1665 243T1671 133T1680 56T1692 4V0H1460V4Q1466 25 1471 56T1481 133T1487 242T1489 391V674Q1489 806 1436 868T1294 930Q1263 930 1226 918T1148 885T1068 837T993 778Q995 766 995 754T995 731V391Q995 306
997 243T1003 133T1012 56T1024 4V0H793V4Q799 25 804 56T813 133T819 242T821 391V674Z" />
<glyph unicode="n" glyph-name="n" horiz-adv-x="1163" d="M842 674Q842 806 789 868T647 930Q615 930 575 917T493 881T409 828T330 764L328 633V391Q328 306 330 243T336 133T345 56T356 4V0H125V4Q131 25 136 56T145 133T151 242T154 391V633Q154 718 152 781T146
891T137 968T125 1020V1024H356V1020Q348 995 344 957T334 856Q375 890 422 924T521 984T625 1027T729 1044Q807 1044 861 1017T950 946T1000 846T1016 731V391Q1016 306 1018 243T1024 133T1033 56T1044 4V0H813V4Q819 25 824 56T833 133T839 242T842 391V674Z"
/>
<glyph unicode="o" glyph-name="o" horiz-adv-x="1231" d="M70 514Q70 627 112 723T227 891T401 1002T616 1042Q729 1042 828 1005T1002 898T1118 730T1161 508Q1161 405 1125 310T1019 142T848 26T614 -18Q502 -18 403 19T230 125T113 292T70 514ZM637 55Q708
55 767 83T870 164T937 293T961 465Q961 573 938 665T870 825T755 931T594 969Q523 969 464 942T362 862T294 735T270 563Q270 455 293 362T363 201T477 94T637 55Z" />
<glyph unicode="p" glyph-name="p" horiz-adv-x="1196" d="M154 653Q154 738 152 801T146 911T137 988T125 1040V1044H356V1040Q351 1025 347 1006T340 963Q399 997 470 1020T629 1044Q740 1044 831 1007T988 899T1090 730T1126 508Q1126 405 1091 310T987 142T818
26T588 -18Q510 -18 446 -6T328 25V-121Q328 -206 330 -269T336 -379T345 -456T356 -508V-512H125V-508Q131 -487 136 -456T145 -379T151 -270T154 -121V653ZM594 969Q560 969 525 961T455 937T389 898T332 844Q330 806 329 758T328 653V129Q348 114 373 101T429
78T500 61T588 55Q666 55 729 83T835 164T902 293T926 465Q926 573 908 665T851 825T748 931T594 969Z" />
<glyph unicode="q" glyph-name="q" horiz-adv-x="1196" d="M868 18Q841 10 811 3T750 -8T687 -15T629 -18Q508 -18 406 17T229 121T112 288T70 514Q70 627 113 723T234 891T417 1002T645 1042Q698 1042 757 1035T866 1016Q913 1005 963 993T1057 963Q1053 948
1051 913T1046 836T1043 756T1042 692V-121Q1042 -206 1044 -269T1050 -379T1059 -456T1071 -508V-512H840V-508Q846 -487 851 -456T860 -379T866 -270T868 -121V18ZM868 676Q868 759 867 812T862 899Q811 931 749 950T621 969Q543 969 479 942T369 862T298 735T272
563Q272 455 296 362T369 201T491 94T664 55Q718 55 770 70T868 115V676Z" />
<glyph unicode="r" glyph-name="r" horiz-adv-x="803" d="M154 633Q154 718 152 781T146 891T137 968T125 1020V1024H356V1020Q348 997 343 964T334 879Q371 910 411 940T493 993T578 1030T666 1044Q693 1044 713 1042T749 1035T778 1025T803 1014L754 823L737
827Q725 871 692 897T602 924Q571 924 537 913T468 883T398 838T330 784Q328 755 328 721T328 649V391Q328 306 330 243T336 133T345 56T356 4V0H125V4Q131 25 136 56T145 133T151 242T154 391V633Z" />
<glyph unicode="s" glyph-name="s" horiz-adv-x="725" d="M606 823L592 821Q585 844 570 870T530 918T471 954T391 969Q360 969 333 960T285 934T252 890T240 829Q240 780 270 736T347 648T446 560T546 468T622 366T653 248Q653 197 635 149T580 62T484 1T344
-23Q296 -23 255 -14T179 8T117 38T68 70L78 260H94Q104 213 124 174T173 108T241 65T324 49Q398 49 441 90T485 197Q485 250 456 294T381 380T285 462T188 549T114 651T84 778Q84 836 105 884T165 967T257 1021T373 1040Q456 1040 511 1023T596 989L606 823Z"
/>
<glyph unicode="t" glyph-name="t" horiz-adv-x="786" d="M516 59Q546 59 575 70T632 100T685 143T733 195L743 190L678 29Q666 23 649 15T607 -1T549 -14T471 -20Q337 -20 263 52T188 279V946L20 940V1028Q51 1026 94 1025T188 1024Q187 1095 185 1149T179 1244T170
1313T160 1360V1364H391V1360Q385 1341 380 1313T372 1245T366 1151T362 1024Q425 1025 485 1026T595 1030T679 1035T725 1040L707 938Q656 939 600 941Q552 943 490 944T362 946V258Q362 196 375 158T410 97T459 67T516 59Z" />
<glyph unicode="u" glyph-name="u" horiz-adv-x="1163" d="M322 350Q322 218 374 156T516 94Q548 94 588 107T670 143T755 196T834 260Q836 289 836 321T836 391V633Q836 718 834 781T828 891T819 968T807 1020V1024H1038V1020Q1032 999 1027 968T1018 891T1012
782T1010 633V391Q1010 306 1012 243T1018 133T1027 56T1038 4V0H807V4Q813 29 819 68T829 170Q788 135 741 101T642 40T538 -3T434 -20Q356 -20 302 7T213 78T163 178T147 293V633Q147 718 145 781T139 891T130 968T119 1020V1024H350V1020Q344 999 339 968T330
891T324 782T322 633V350Z" />
<glyph unicode="v" glyph-name="v" horiz-adv-x="975" d="M248 1024V1020Q246 1015 245 1005T244 987Q244 956 253 919T285 825L524 256L766 817Q781 854 798 898T815 987Q815 1000 813 1008T809 1020V1024H989V1020Q971 1001 944 953T885 831L516 -14H457L115
782Q97 826 77 866T38 939T5 992T-14 1020V1024H248Z" />
<glyph unicode="w" glyph-name="w" horiz-adv-x="1538" d="M829 932L1096 260L1319 817Q1326 835 1335 857T1351 903T1363 948T1368 987Q1368 1000 1366 1008T1362 1020V1024H1542V1020Q1524 1001 1499 958T1438 831L1083 -14H1026L768 612L510 -14H453L125 782Q107
826 87 866T48 939T15 992T-4 1020V1024H262V1020Q260 1015 259 1005T258 987Q258 956 267 919T299 825L522 260L791 932H829Z" />
<glyph unicode="x" glyph-name="x" horiz-adv-x="1071" d="M502 430L262 127Q249 110 236 92T212 57T195 25T188 0H20V4Q36 18 64 46T125 115L440 514L131 932Q105 966 80 990T43 1020V1024H317Q317 1007 329 971T379 883L549 651L743 897Q755 913 767 931T789
966T805 999T811 1024H979V1020Q965 1009 944 988T889 924L610 569L946 115Q980 70 1009 41T1051 4V0H778Q778 17 765 54T717 141L502 430Z" />
<glyph unicode="y" glyph-name="y" horiz-adv-x="1026" d="M475 12L123 782Q104 826 82 866T41 939T6 992T-14 1020V1024H248V1020Q246 1015 245 1005T244 987Q244 956 253 919T289 825L565 225L817 817Q833 854 849 898T866 987Q866 1000 864 1008T860 1020V1024H1040V1020Q1022
1001 995 953T936 831L459 -305Q443 -342 427 -386T410 -475Q410 -488 412 -496T416 -508V-512H229V-508Q248 -489 275 -442T334 -322L475 12Z" />
<glyph unicode="z" glyph-name="z" horiz-adv-x="954" d="M256 78H553Q631 78 697 86T811 106Q867 118 913 135L868 -8Q856 -7 827 -6T765 -3T703 -1T664 0H16V25L662 946H453Q370 946 301 937T180 917Q120 905 72 889L137 1032Q149 1030 178 1029T241 1027T302
1025T342 1024H905V1006L256 78Z" />
<glyph unicode="{" glyph-name="braceleft" horiz-adv-x="637" d="M250 418Q250 455 242 486T213 542T161 581T80 600V641Q128 645 160 660T213 699T241 754T250 823Q250 859 244 908T230 1012T216 1122T209 1223Q209 1301 234 1353T302 1437T406 1482T535 1495L549
1458Q516 1458 479 1455T412 1433T361 1373T340 1257Q340 1216 345 1166T357 1061T369 951T375 844Q375 789 360 751T317 688T255 647T180 621Q219 611 254 595T317 553T359 489T375 397Q375 346 370 291T358 181T346 76T340 -16Q340 -91 360 -132T411 -192T479
-214T549 -217L535 -254Q466 -254 406 -241T303 -197T234 -113T209 18Q209 64 215 119T229 229T243 333T250 418Z" />
<glyph unicode="|" glyph-name="bar" horiz-adv-x="1024" d="M459 1565H565V-483H459V1565Z" />
<glyph unicode="}" glyph-name="braceright" horiz-adv-x="637" d="M387 823Q387 786 395 755T424 699T476 660T557 641V600Q509 596 477 581T424 542T396 487T387 418Q387 383 393 334T407 229T421 119T428 18Q428 -60 403 -112T335 -196T231 -241T102 -254L88
-217Q121 -217 158 -214T225 -192T276 -132T297 -16Q297 25 292 75T280 180T268 290T262 397Q262 452 277 490T320 553T382 595T457 621Q418 631 383 646T320 688T278 752T262 844Q262 895 267 950T279 1060T291 1165T297 1257Q297 1332 277 1373T226 1433T158
1455T88 1458L102 1495Q171 1495 231 1482T334 1438T403 1354T428 1223Q428 1177 422 1122T408 1013T394 909T387 823Z" />
<glyph unicode="~" glyph-name="asciitilde" horiz-adv-x="1331" d="M915 690Q956 690 987 701T1042 730T1083 770T1112 813L1184 764Q1139 677 1070 635T909 592Q854 592 789 611T658 653T530 696T416 715Q375 715 344 704T289 675T248 635T219 592L147 641Q192
728 261 770T422 813Q477 813 542 794T673 752T801 709T915 690Z" />
<glyph unicode="&#xa0;" glyph-name="nbspace" horiz-adv-x="614" />
<glyph unicode="&#xa1;" glyph-name="exclamdown" horiz-adv-x="502" d="M356 1346Q356 1323 348 1304T325 1270T292 1248T250 1239Q227 1239 207 1247T173 1270T150 1303T141 1346Q141 1392 172 1423T250 1454Q272 1454 291 1446T325 1423T347 1389T356 1346ZM268
1106Q287 881 300 716T324 433T340 239T352 115T361 43T369 4V0H131V4Q135 18 139 42T147 114T159 238T175 433T198 716T231 1106H268Z" />
<glyph unicode="&#xa2;" glyph-name="cent" horiz-adv-x="973" d="M532 102Q434 108 352 142T209 237T116 381T82 573Q82 667 115 749T209 893T351 993T532 1040V1266H594V1042Q642 1040 694 1031T788 1008L860 838L848 831Q828 860 800 885T739 928T668 956T594
969V176H618Q658 176 697 187T770 220T834 272T883 340L895 334L821 156Q798 144 770 135T712 118T652 107T594 102V-141H532V102ZM274 616Q274 535 290 463T338 335T419 239T532 184V965Q474 957 427 930T345 859T293 753T274 616Z" />
<glyph unicode="&#xa3;" glyph-name="sterling" horiz-adv-x="1130" d="M172 610Q206 608 264 607T385 606Q372 663 349 716T304 824T266 941T250 1077Q250 1147 268 1202T318 1299T389 1372T472 1421T558 1449T637 1458Q693 1458 736 1453T817 1439T886 1416T954
1386L1001 1184L987 1178Q979 1196 958 1227T902 1288T814 1340T692 1362Q647 1362 604 1348T528 1300T475 1214T455 1085Q455 1024 466 967T490 852T514 734T526 606Q635 608 709 613T805 623L786 520Q752 521 711 523Q676 525 628 526T520 528Q509 454 472 367T360
172H807Q839 172 869 173T925 178T969 188T997 203H1001V0H123V20Q202 93 255 159T339 284T384 398T397 504Q397 510 396 516T395 528Q363 528 330 528T268 527T213 525T172 522V610Z" />
<glyph unicode="&#xa4;" glyph-name="currency" horiz-adv-x="1241" d="M623 1208Q558 1208 500 1183T397 1113T327 1011T301 887Q301 819 326 760T394 658T497 589T623 563Q689 563 747 589T849 659T918 763T944 887Q944 951 919 1009T851 1112T749 1182T623
1208ZM158 1407L362 1202Q425 1249 488 1271T621 1294Q761 1294 883 1202L1085 1407L1145 1346L942 1143Q1030 1027 1030 885Q1030 739 942 627L1145 424L1085 362L883 567Q768 477 621 477Q546 477 484 499T362 567L158 362L98 424L303 627Q213 746 213 885Q213
1024 303 1143L98 1346L158 1407Z" />
<glyph unicode="&#xa5;" glyph-name="yen" horiz-adv-x="1292" d="M184 772Q240 770 321 769T500 768H502L158 1276Q137 1307 116 1333T77 1378T44 1411T20 1430V1434H324Q324 1411 340 1359T403 1235L690 797L971 1255Q986 1280 1001 1306T1029 1356T1049 1400T1057
1434H1251V1430Q1231 1411 1198 1374T1124 1274L795 768Q862 769 920 770T1023 772T1100 776T1145 780L1116 696Q1071 697 1015 698Q967 699 901 700T754 702L748 694V543Q824 544 889 545T1007 547T1094 551T1145 555L1116 471Q1070 472 1013 473Q964 474 897
475T748 477V391Q748 306 750 243T756 133T765 56T776 4V0H537V4Q543 25 548 56T557 133T563 242T565 391V479H541Q487 479 434 479T332 478T244 476T176 473L184 547Q240 545 321 544T500 543H565V676L545 705H541Q487 705 434 705T332 703T244 701T176 698L184
772Z" />
<glyph unicode="&#xa6;" glyph-name="brokenbar" horiz-adv-x="1024" d="M459 408H565V-350H459V408ZM459 1432H565V674H459V1432Z" />
<glyph unicode="&#xa7;" glyph-name="section" horiz-adv-x="1024" d="M811 498Q811 435 785 374T702 268Q737 222 757 171T778 59Q778 7 763 -45T713 -138T622 -205T483 -231Q440 -231 400 -223T325 -202T263 -174T217 -145L223 70H248Q261 25 281 -17T332 -93T403
-146T498 -166Q542 -166 575 -152T630 -112T663 -52T674 23Q674 78 654 123T602 209T529 285T444 359T359 435T285 520T233 620T213 741Q213 816 241 869T317 958Q285 1005 266 1058T246 1180Q246 1249 271 1301T339 1388T436 1440T547 1458Q609 1458 655 1445T731
1419V1237H709Q700 1258 684 1285T644 1336T586 1376T508 1393Q466 1393 434 1379T379 1339T346 1281T334 1212Q334 1164 354 1121T408 1036T485 956T572 877T660 795T736 707T790 609T811 498ZM707 461Q707 512 690 555T643 636T576 709T498 779T418 849T344 926Q319
897 310 857T301 774Q301 729 318 689T365 611T431 537T510 464T591 389T668 311Q689 342 698 382T707 461Z" />
<glyph unicode="&#xa8;" glyph-name="dieresis" horiz-adv-x="1024" d="M236 1313Q236 1332 243 1349T262 1378T291 1398T328 1405Q347 1405 364 1398T393 1379T413 1349T420 1313Q420 1294 413 1277T394 1248T364 1228T328 1221Q308 1221 292 1228T263 1247T243
1277T236 1313ZM604 1313Q604 1332 611 1349T630 1378T660 1398T696 1405Q715 1405 732 1398T761 1379T781 1349T788 1313Q788 1294 781 1277T762 1248T732 1228T696 1221Q677 1221 660 1228T631 1247T611 1277T604 1313Z" />
<glyph unicode="&#xa9;" glyph-name="copyright" horiz-adv-x="1733" d="M164 680Q164 777 189 866T260 1034T370 1176T512 1286T679 1357T866 1382Q963 1382 1052 1357T1220 1286T1362 1176T1473 1034T1544 867T1569 680Q1569 535 1514 407T1363 184T1139 33T866
-23Q769 -23 680 2T512 73T370 183T260 326T189 493T164 680ZM1161 948L1151 942Q1108 982 1051 1009T922 1036Q853 1036 796 1015T698 952T635 850T612 713Q612 627 633 554T698 426T805 342T954 311Q1017 311 1075 340T1174 420L1186 414L1139 289Q1097 267 1043
256T934 244Q827 244 738 275T586 362T487 498T451 676Q451 758 482 835T573 973T717 1069T909 1106Q966 1106 1020 1095T1122 1061L1161 948ZM260 680Q260 555 307 445T437 252T630 122T866 74Q949 74 1026 95T1171 156T1294 251T1389 374T1451 519T1473 680Q1473
763 1451 840T1390 985T1295 1108T1172 1203T1027 1264T866 1286Q741 1286 631 1239T438 1109T308 916T260 680Z" />
<glyph unicode="&#xaa;" glyph-name="ordfeminine" horiz-adv-x="760" d="M66 969Q66 1021 87 1058T145 1123T227 1166T322 1192T418 1205T506 1210V1231Q506 1318 463 1360T350 1403Q303 1403 249 1385T143 1317L133 1325L180 1425Q225 1444 267 1451T360 1458Q429
1458 482 1442T571 1396T625 1329T643 1245V1032Q643 976 644 935T648 863T654 813T662 780V776H494V780Q497 790 499 804T504 838Q489 826 469 813T425 789T371 771T307 764Q192 764 129 818T66 969ZM506 1153Q445 1152 393 1147T301 1123T240 1070T217 975Q217
898 255 863T352 827Q380 827 404 835T448 857T482 886T506 915V1032V1153Z" />
<glyph unicode="&#xab;" glyph-name="guillemotleft" horiz-adv-x="911" d="M82 537Q90 543 110 561T159 607T223 668T295 741T369 820T438 901L475 874Q445 831 416 785T361 694T313 608T274 532Q291 498 313 457T360 371T415 280T475 190L438 164Q406 203 369
244T295 323T223 395T160 457T111 502T82 528V537ZM430 537Q438 543 458 561T507 607T571 668T643 741T717 820T786 901L823 874Q793 831 765 785T710 694T662 608T623 532Q640 498 662 457T709 371T763 280T823 190L786 164Q754 203 717 244T643 323T571 395T508
457T459 502T430 528V537Z" />
<glyph unicode="&#xac;" glyph-name="logicalnot" horiz-adv-x="1331" d="M1065 303V754H143V856H1167V303H1065Z" />
<glyph unicode="&#xad;" glyph-name="uni00AD" horiz-adv-x="840" d="M82 457V600H758V457H82Z" />
<glyph unicode="&#xae;" glyph-name="registered" horiz-adv-x="1352" d="M678 1374Q586 1374 506 1338T364 1241T268 1097T233 924Q233 833 267 752T361 610T502 513T676 477Q771 477 852 513T993 612T1086 754T1120 924Q1120 1018 1084 1100T987 1243T846 1339T678
1374ZM678 1458Q785 1458 881 1417T1050 1303T1165 1133T1208 922Q1208 820 1168 724T1055 554T885 436T672 391Q566 391 470 433T302 547T186 717T143 924Q143 1033 185 1130T300 1300T470 1415T678 1458ZM592 793Q592 720 595 683T604 629V625H469V629Q475 646
478 683T481 793V1077Q481 1151 477 1188T469 1241V1245Q486 1244 503 1244Q517 1243 531 1243T557 1243Q574 1243 602 1247T676 1251Q721 1251 758 1240T824 1208T867 1155T883 1083Q883 1042 871 1012T840 960T800 926T762 907L907 696Q930 664 947 650T981 629V625H825Q825
633 819 646T803 674L657 885Q655 885 647 885T628 886T608 887T592 889V793ZM592 936Q601 934 611 933T631 932Q660 932 685 940T728 966T757 1012T768 1081Q768 1146 737 1177T655 1208Q643 1208 632 1207T611 1203Q600 1200 592 1198V936Z" />
<glyph unicode="&#xaf;" glyph-name="overscore" horiz-adv-x="1024" d="M246 1364H778V1266H246V1364Z" />
<glyph unicode="&#xb0;" glyph-name="degree" horiz-adv-x="586" d="M61 1227Q61 1275 79 1317T129 1390T203 1440T293 1458Q341 1458 383 1440T456 1391T506 1317T524 1227Q524 1179 506 1137T457 1064T383 1014T293 995Q245 995 203 1013T130 1063T80 1137T61
1227ZM143 1227Q143 1196 155 1169T187 1122T235 1089T293 1077Q324 1077 351 1089T398 1121T430 1169T442 1227Q442 1258 430 1285T398 1332T351 1364T293 1376Q262 1376 235 1364T188 1332T155 1285T143 1227Z" />
<glyph unicode="&#xb1;" glyph-name="plusminus" horiz-adv-x="1331" d="M717 692V242H614V692H143V795H614V1245H717V795H1188V692H717ZM143 37V139H1188V37H143Z" />
<glyph unicode="&#xb2;" glyph-name="twosuperior" horiz-adv-x="733" d="M113 645Q125 659 154 686T220 752T296 838T367 943T421 1061T442 1192Q442 1246 429 1283T395 1343T344 1376T281 1386Q233 1386 195 1374T128 1344T83 1310T59 1282L47 1290L88 1405Q122
1419 151 1429T211 1445T273 1455T344 1458Q386 1458 434 1446T523 1407T591 1335T618 1225Q618 1157 587 1092T509 968T409 856T311 762H522Q546 762 572 763T620 766T660 773T684 782H688V627H113V645V645Z" />
<glyph unicode="&#xb3;" glyph-name="threesuperior" horiz-adv-x="672" d="M180 1110Q211 1114 244 1124T306 1154T352 1205T371 1282Q371 1333 342 1362T250 1391Q208 1391 174 1383T114 1360T69 1327T35 1290L23 1296L63 1413Q111 1432 165 1445T295 1458Q326
1458 368 1451T448 1425T512 1374T539 1294Q539 1254 522 1224T478 1172T423 1136T371 1114Q408 1112 448 1101T520 1066T573 1006T594 915Q594 854 568 800T499 698T397 610T276 539T146 485T20 449L4 485Q90 505 165 541T297 630T385 752T418 905Q418 953 405
984T370 1033T321 1058T268 1065Q250 1065 234 1063T206 1059Q192 1056 180 1053V1110V1110Z" />
<glyph unicode="&#xb4;" glyph-name="acute" horiz-adv-x="1024" d="M741 1321Q667 1296 591 1268Q558 1256 522 1242T449 1212T375 1180T303 1145L281 1182Q346 1225 410 1276T529 1372Q591 1424 649 1477L741 1321Z" />
<glyph unicode="&#xb5;" glyph-name="micro" horiz-adv-x="1169" d="M573 109Q623 109 671 123T758 168T819 246T842 358V633Q842 718 840 781T834 891T825 968T813 1020V1024H1044V1020Q1038 999 1033 968T1024 891T1018 782T1016 633V391Q1016 306 1018 243T1024
133T1033 56T1044 4V0H813V4Q819 26 824 61T834 150Q798 68 732 19T573 -31Q525 -31 487 -18T419 17T367 69T328 131V43Q328 -42 330 -105T336 -215T345 -292T356 -344V-348H125V-344Q131 -323 136 -292T145 -215T151 -106T154 43V633Q154 718 152 781T146 891T137
968T125 1020V1024H356V1020Q350 999 345 968T336 891T330 782T328 633V365Q328 300 346 252T398 173T476 125T573 109Z" />
<glyph unicode="&#xb6;" glyph-name="paragraph" horiz-adv-x="963" d="M770 1331V1327Q764 1306 761 1275T755 1198T753 1089T752 940V289Q752 203 752 140T755 31T760 -46T770 -98V-102H647V-98Q649 -91 652 -58T659 27T664 146T666 289V1255H547V289Q547 203
547 140T550 31T555 -46T565 -98V-102H442V-98Q448 -77 452 -46T458 31T460 140T461 289V633Q384 635 315 659T195 729T113 845T82 1006Q82 1086 105 1148T171 1254T275 1320T412 1343Q451 1343 478 1341T534 1337T600 1332T694 1331H770Z" />
<glyph unicode="&#xb7;" glyph-name="middot" horiz-adv-x="420" d="M102 707Q102 729 110 748T133 782T167 804T209 813Q232 813 251 805T285 782T308 749T317 707Q317 660 286 629T209 598Q187 598 168 606T134 629T111 664T102 707Z" />
<glyph unicode="&#xb8;" glyph-name="cedilla" horiz-adv-x="1024" d="M741 -285Q741 -324 722 -356T670 -410T591 -445T492 -457Q430 -457 376 -444T274 -406L293 -360Q306 -366 322 -373T357 -387T401 -397T457 -401Q523 -401 564 -369T606 -285Q606 -228 567
-201T471 -174Q462 -174 447 -175T424 -178L489 0H535L487 -129Q500 -127 511 -126T537 -125Q593 -125 632 -139T695 -176T730 -228T741 -285Z" />
<glyph unicode="&#xb9;" glyph-name="onesuperior" horiz-adv-x="422" d="M117 631Q121 643 124 661T129 704T133 766T135 850V1221Q135 1269 128 1297T110 1342T89 1364T70 1374V1378L305 1444V1440Q300 1428 297 1410T292 1367T288 1305T287 1221V850Q287 802
288 766T291 705T297 661T305 631V627H117V631Z" />
<glyph unicode="&#xba;" glyph-name="ordmasculine" horiz-adv-x="866" d="M63 1110Q63 1185 91 1248T170 1358T288 1431T434 1458Q511 1458 578 1433T695 1363T774 1252T803 1106Q803 1038 779 976T707 865T590 789T432 760Q356 760 289 784T172 854T92 964T63
1110ZM444 823Q489 823 525 841T588 892T628 973T643 1079Q643 1146 630 1203T589 1303T520 1370T422 1395Q378 1395 342 1377T279 1326T238 1246T223 1141Q223 1074 237 1016T280 915T349 848T444 823Z" />
<glyph unicode="&#xbb;" glyph-name="guillemotright" horiz-adv-x="911" d="M829 528Q821 521 801 503T752 458T688 397T616 324T542 245T473 164L436 190Q466 233 495 279T550 370T598 456T637 532Q620 566 598 607T551 693T496 784T436 874L473 901Q505 861
542 821T616 742T688 670T752 608T801 562T829 537V528ZM481 528Q473 521 453 503T404 458T340 397T268 324T194 245T125 164L88 190Q118 233 147 279T202 370T250 456T289 532Q272 566 250 607T203 693T148 784T88 874L125 901Q157 861 194 821T268 742T340 670T404
608T453 562T481 537V528Z" />
<glyph unicode="&#xbc;" glyph-name="onequarter" horiz-adv-x="1440" d="M137 631Q141 643 144 661T150 704T154 766T156 850V1221Q156 1269 149 1297T131 1342T109 1364T90 1374V1378L326 1444V1440Q321 1428 318 1410T312 1367T308 1305T307 1221V850Q307 802
308 766T311 705T317 661T326 631V627H137V631ZM1241 831V827Q1238 815 1236 798T1232 754T1230 692T1229 608V264Q1286 264 1321 267T1378 276H1382V176H1378Q1357 179 1322 181T1229 186Q1229 145 1230 116T1233 65T1239 30T1247 4V0H1055V4Q1058 16 1061 30T1066
65T1070 115T1073 186H662V221L1225 831H1241ZM1073 264V561L799 264H1073ZM1106 1458L1188 1405L250 -31L168 23L1106 1458Z" />
<glyph unicode="&#xbd;" glyph-name="onehalf" horiz-adv-x="1559" d="M137 631Q141 643 144 661T150 704T154 766T156 850V1221Q156 1269 149 1297T131 1342T109 1364T90 1374V1378L326 1444V1440Q321 1428 318 1410T312 1367T308 1305T307 1221V850Q307 802
308 766T311 705T317 661T326 631V627H137V631ZM1106 1458L1188 1405L250 -31L168 23L1106 1458ZM901 18Q915 30 946 58T1016 125T1096 215T1172 323T1229 446T1251 578Q1251 624 1239 658T1207 715T1158 749T1096 760Q1048 760 1011 745T946 710T903 669T881 639L868
647L918 778Q952 792 978 802T1031 818T1086 828T1153 831Q1195 831 1243 819T1332 780T1400 708T1427 598Q1427 530 1393 466T1308 342T1201 230T1100 135H1311Q1335 135 1360 136T1408 139T1448 146T1473 156H1477V0H901V18Z" />
<glyph unicode="&#xbe;" glyph-name="threequarters" horiz-adv-x="1583" d="M1384 831V827Q1381 815 1379 798T1375 754T1373 692T1372 608V264Q1429 264 1464 267T1522 276H1526V176H1522Q1500 179 1465 181T1372 186Q1372 145 1373 116T1376 65T1382 30T1391
4V0H1198V4Q1201 16 1204 30T1209 65T1214 115T1217 186H805V221L1368 831H1384ZM1217 264V561L942 264H1217ZM1249 1458L1331 1405L393 -31L311 23L1249 1458ZM201 1110Q232 1114 265 1124T327 1154T373 1205T391 1282Q391 1333 362 1362T270 1391Q228 1391 195
1383T135 1360T89 1327T55 1290L43 1296L84 1413Q131 1432 185 1445T315 1458Q346 1458 388 1451T468 1425T532 1374T559 1294Q559 1254 542 1224T499 1172T444 1136T391 1114Q429 1112 468 1101T540 1066T593 1006T614 915Q614 861 590 812T523 721T425 643T307
579T180 531T55 500L39 537Q125 555 198 586T324 664T408 770T438 905Q438 953 425 984T390 1033T342 1058T289 1065Q271 1065 255 1063T227 1059Q213 1056 201 1053V1110Z" />
<glyph unicode="&#xbf;" glyph-name="questiondown" horiz-adv-x="817" d="M592 1339Q592 1317 584 1298T561 1264T527 1242T485 1233Q462 1233 443 1241T409 1264T386 1297T377 1339Q377 1386 408 1417T485 1448Q507 1448 527 1440T561 1417T583 1382T592 1339ZM477
53Q532 53 576 70T654 113T708 167T737 219H756L721 37Q705 30 681 19T623 -4T549 -23T457 -31Q389 -31 322 -14T202 41T115 140T82 289Q82 362 110 427T182 555T274 679T367 806T438 944T467 1100H514Q514 1008 496 932T449 789T388 663T327 544T281 423T262 291Q262
227 280 182T328 109T397 67T477 53Z" />
<glyph unicode="&#xc0;" glyph-name="Agrave" horiz-adv-x="1389" d="M1135 0V4Q1137 9 1138 19T1139 37Q1139 68 1131 105T1098 199L977 471Q921 473 828 473T627 473Q548 473 475 473T342 471L227 207Q212 170 195 126T178 37Q178 24 180 16T184 4V0H-20V4Q-2
23 25 71T84 193L657 1464H737L1280 242Q1299 199 1319 159T1358 86T1390 32T1409 4V0H1135ZM487 559Q545 559 606 559T725 560T838 561T936 563L655 1198L379 559H487ZM453 1887Q510 1834 572 1782Q625 1737 690 1686T821 1592L799 1555Q764 1573 727 1589T653
1622T579 1652T511 1678Q434 1706 361 1731L453 1887Z" />
<glyph unicode="&#xc1;" glyph-name="Aacute" horiz-adv-x="1389" d="M1135 0V4Q1137 9 1138 19T1139 37Q1139 68 1131 105T1098 199L977 471Q921 473 828 473T627 473Q548 473 475 473T342 471L227 207Q212 170 195 126T178 37Q178 24 180 16T184 4V0H-20V4Q-2
23 25 71T84 193L657 1464H737L1280 242Q1299 199 1319 159T1358 86T1390 32T1409 4V0H1135ZM487 559Q545 559 606 559T725 560T838 561T936 563L655 1198L379 559H487ZM1026 1731Q952 1706 876 1678Q843 1666 807 1652T734 1622T660 1590T588 1555L566 1592Q631
1635 695 1686T814 1782Q876 1834 934 1887L1026 1731Z" />
<glyph unicode="&#xc2;" glyph-name="Acircumflex" horiz-adv-x="1389" d="M1135 0V4Q1137 9 1138 19T1139 37Q1139 68 1131 105T1098 199L977 471Q921 473 828 473T627 473Q548 473 475 473T342 471L227 207Q212 170 195 126T178 37Q178 24 180 16T184 4V0H-20V4Q-2
23 25 71T84 193L657 1464H737L1280 242Q1299 199 1319 159T1358 86T1390 32T1409 4V0H1135ZM487 559Q545 559 606 559T725 560T838 561T936 563L655 1198L379 559H487ZM694 1887Q752 1834 814 1782Q868 1737 933 1686T1063 1592L1040 1555Q997 1576 950 1598T858
1642T770 1680T694 1710Q660 1698 619 1681T532 1643T439 1600T348 1555L325 1592Q390 1635 455 1686T574 1782Q636 1834 694 1887Z" />
<glyph unicode="&#xc3;" glyph-name="Atilde" horiz-adv-x="1389" d="M1135 0V4Q1137 9 1138 19T1139 37Q1139 68 1131 105T1098 199L977 471Q921 473 828 473T627 473Q548 473 475 473T342 471L227 207Q212 170 195 126T178 37Q178 24 180 16T184 4V0H-20V4Q-2
23 25 71T84 193L657 1464H737L1280 242Q1299 199 1319 159T1358 86T1390 32T1409 4V0H1135ZM487 559Q545 559 606 559T725 560T838 561T936 563L655 1198L379 559H487ZM987 1805Q964 1762 944 1731T903 1678T858 1647T803 1637Q777 1637 741 1648T667 1673T595
1698T540 1710Q505 1710 479 1692T428 1631L399 1647Q421 1690 441 1721T482 1774T528 1805T583 1815Q608 1815 644 1804T719 1778T791 1753T846 1741Q881 1741 907 1759T958 1821L987 1805V1805Z" />
<glyph unicode="&#xc4;" glyph-name="Adieresis" horiz-adv-x="1389" d="M1135 0V4Q1137 9 1138 19T1139 37Q1139 68 1131 105T1098 199L977 471Q921 473 828 473T627 473Q548 473 475 473T342 471L227 207Q212 170 195 126T178 37Q178 24 180 16T184 4V0H-20V4Q-2
23 25 71T84 193L657 1464H737L1280 242Q1299 199 1319 159T1358 86T1390 32T1409 4V0H1135ZM487 559Q545 559 606 559T725 560T838 561T936 563L655 1198L379 559H487ZM418 1723Q418 1742 425 1759T444 1788T473 1808T510 1815Q529 1815 546 1808T575 1789T595
1759T602 1723Q602 1704 595 1687T576 1658T546 1638T510 1631Q490 1631 474 1638T445 1657T425 1687T418 1723ZM786 1723Q786 1742 793 1759T812 1788T842 1808T878 1815Q897 1815 914 1808T943 1789T963 1759T970 1723Q970 1704 963 1687T944 1658T914 1638T878
1631Q859 1631 842 1638T813 1657T793 1687T786 1723Z" />
<glyph unicode="&#xc5;" glyph-name="Aring" horiz-adv-x="1389" d="M1135 0V4Q1137 9 1138 19T1139 37Q1139 68 1131 105T1098 199L977 471Q921 473 828 473T627 473Q548 473 475 473T342 471L227 207Q212 170 195 126T178 37Q178 24 180 16T184 4V0H-20V4Q-2
23 25 71T84 193L657 1464H737L1280 242Q1299 199 1319 159T1358 86T1390 32T1409 4V0H1135ZM487 559Q545 559 606 559T725 560T838 561T936 563L655 1198L379 559H487ZM559 1766Q559 1737 569 1713T599 1669T642 1640T696 1629Q724 1629 749 1639T793 1669T822
1712T833 1766Q833 1794 823 1819T793 1863T749 1892T696 1903Q667 1903 643 1893T599 1863T570 1819T559 1766ZM467 1766Q467 1814 485 1855T534 1928T606 1977T696 1995Q744 1995 785 1977T858 1928T907 1856T925 1766Q925 1718 907 1677T858 1604T786 1554T696
1536Q648 1536 607 1554T534 1603T485 1676T467 1766Z" />
<glyph unicode="&#xc6;" glyph-name="AE" horiz-adv-x="1710" d="M774 715Q693 715 616 715T479 713L184 203Q174 185 163 165T143 123T127 80T121 37Q121 24 123 16T127 4V0H-123V4Q-91 24 -48 70T37 188L545 1038Q591 1116 627 1181T689 1297T731 1383T754 1434H891Q1012
1434 1128 1435T1341 1437T1506 1442T1599 1450L1550 1317Q1517 1326 1473 1333Q1435 1339 1381 1344T1255 1350Q1231 1350 1198 1349T1134 1345Q1098 1343 1061 1341V795Q1164 796 1246 801T1387 811Q1455 817 1507 825L1477 680Q1408 689 1336 697Q1274 704 1201
709T1061 715V88Q1178 88 1277 98T1451 121Q1537 135 1608 154L1579 -8Q1567 -7 1543 -6T1490 -4T1428 -3T1366 -2T1315 -1T1282 0H850V4Q856 25 861 56T870 133T876 242T879 391V715H774ZM524 791H879V1042Q879 1135 879 1201T877 1315H827L524 791Z" />
<glyph unicode="&#xc7;" glyph-name="Ccedilla" horiz-adv-x="1386" d="M1079 -285Q1079 -324 1060 -356T1008 -410T928 -445T829 -457Q768 -457 714 -444T612 -406L631 -360Q644 -366 660 -373T695 -387T739 -397T795 -401Q861 -401 902 -369T944 -285Q944 -228
905 -201T809 -174Q800 -174 785 -175T762 -178L817 -27Q653 -13 518 46T286 202T136 429T82 715Q82 810 106 902T178 1077T294 1229T451 1350T646 1429T877 1458Q1070 1458 1235 1399L1303 1214L1294 1210Q1216 1282 1107 1325T866 1368Q740 1368 635 1329T455
1214T337 1030T295 782Q295 629 335 497T454 267T651 115T928 59Q985 59 1042 71T1151 106T1250 163T1335 240L1346 233L1266 29Q1191 0 1101 -15T918 -31Q904 -31 890 -30T862 -29L825 -129Q838 -127 849 -126T874 -125Q930 -125 969 -139T1032 -176T1068 -228T1079
-285Z" />
<glyph unicode="&#xc8;" glyph-name="Egrave" horiz-adv-x="1004" d="M143 1434Q268 1434 391 1435T618 1437T794 1442T893 1450L844 1317Q811 1326 767 1333Q729 1339 675 1344T549 1350Q525 1350 492 1349T427 1345Q391 1343 354 1341V795Q457 796 540 801T681
811Q749 817 801 825L770 680Q701 689 629 697Q567 704 494 709T354 715V88Q472 88 571 98T744 121Q830 135 901 154L872 -8Q860 -7 836 -6T783 -4T721 -3T659 -2T608 -1T575 0H143V4Q149 25 154 56T164 133T170 242T172 391V1042Q172 1127 170 1190T164 1300T155
1378T143 1430V1434V1434ZM364 1887Q421 1834 483 1782Q536 1737 601 1686T732 1592L710 1555Q675 1573 638 1589T564 1622T490 1652T422 1678Q345 1706 272 1731L364 1887Z" />
<glyph unicode="&#xc9;" glyph-name="Eacute" horiz-adv-x="1004" d="M143 1434Q268 1434 391 1435T618 1437T794 1442T893 1450L844 1317Q811 1326 767 1333Q729 1339 675 1344T549 1350Q525 1350 492 1349T427 1345Q391 1343 354 1341V795Q457 796 540 801T681
811Q749 817 801 825L770 680Q701 689 629 697Q567 704 494 709T354 715V88Q472 88 571 98T744 121Q830 135 901 154L872 -8Q860 -7 836 -6T783 -4T721 -3T659 -2T608 -1T575 0H143V4Q149 25 154 56T164 133T170 242T172 391V1042Q172 1127 170 1190T164 1300T155
1378T143 1430V1434V1434ZM774 1731Q700 1706 624 1678Q591 1666 555 1652T482 1622T408 1590T336 1555L314 1592Q379 1635 443 1686T562 1782Q624 1834 682 1887L774 1731Z" />
<glyph unicode="&#xca;" glyph-name="Ecircumflex" horiz-adv-x="1004" d="M143 1434Q268 1434 391 1435T618 1437T794 1442T893 1450L844 1317Q811 1326 767 1333Q729 1339 675 1344T549 1350Q525 1350 492 1349T427 1345Q391 1343 354 1341V795Q457 796 540
801T681 811Q749 817 801 825L770 680Q701 689 629 697Q567 704 494 709T354 715V88Q472 88 571 98T744 121Q830 135 901 154L872 -8Q860 -7 836 -6T783 -4T721 -3T659 -2T608 -1T575 0H143V4Q149 25 154 56T164 133T170 242T172 391V1042Q172 1127 170 1190T164
1300T155 1378T143 1430V1434V1434ZM503 1887Q561 1834 623 1782Q677 1737 742 1686T872 1592L849 1555Q806 1576 759 1598T667 1642T579 1680T503 1710Q469 1698 428 1681T341 1643T248 1600T157 1555L134 1592Q199 1635 264 1686T383 1782Q445 1834 503 1887Z"
/>
<glyph unicode="&#xcb;" glyph-name="Edieresis" horiz-adv-x="1004" d="M143 1434Q268 1434 391 1435T618 1437T794 1442T893 1450L844 1317Q811 1326 767 1333Q729 1339 675 1344T549 1350Q525 1350 492 1349T427 1345Q391 1343 354 1341V795Q457 796 540 801T681
811Q749 817 801 825L770 680Q701 689 629 697Q567 704 494 709T354 715V88Q472 88 571 98T744 121Q830 135 901 154L872 -8Q860 -7 836 -6T783 -4T721 -3T659 -2T608 -1T575 0H143V4Q149 25 154 56T164 133T170 242T172 391V1042Q172 1127 170 1190T164 1300T155
1378T143 1430V1434V1434ZM227 1723Q227 1742 234 1759T253 1788T282 1808T319 1815Q338 1815 355 1808T384 1789T404 1759T411 1723Q411 1704 404 1687T385 1658T355 1638T319 1631Q299 1631 283 1638T254 1657T234 1687T227 1723ZM595 1723Q595 1742 602 1759T621
1788T651 1808T687 1815Q706 1815 723 1808T752 1789T772 1759T779 1723Q779 1704 772 1687T753 1658T723 1638T687 1631Q668 1631 651 1638T622 1657T602 1687T595 1723Z" />
<glyph unicode="&#xcc;" glyph-name="Igrave" horiz-adv-x="543" d="M152 4Q158 25 163 56T172 133T178 242T180 391V1042Q180 1127 178 1190T172 1300T163 1378T152 1430V1434H391V1430Q385 1409 380 1378T371 1301T365 1191T362 1042V391Q362 306 364 243T370
133T379 56T391 4V0H152V4ZM93 1887Q150 1834 212 1782Q265 1737 330 1686T461 1592L439 1555Q404 1573 367 1589T293 1622T219 1652T151 1678Q74 1706 1 1731L93 1887Z" />
<glyph unicode="&#xcd;" glyph-name="Iacute" horiz-adv-x="543" d="M152 4Q158 25 163 56T172 133T178 242T180 391V1042Q180 1127 178 1190T172 1300T163 1378T152 1430V1434H391V1430Q385 1409 380 1378T371 1301T365 1191T362 1042V391Q362 306 364 243T370
133T379 56T391 4V0H152V4ZM543 1731Q469 1706 393 1678Q360 1666 324 1652T251 1622T177 1590T105 1555L83 1592Q148 1635 212 1686T331 1782Q393 1834 451 1887L543 1731Z" />
<glyph unicode="&#xce;" glyph-name="Icircumflex" horiz-adv-x="543" d="M152 4Q158 25 163 56T172 133T178 242T180 391V1042Q180 1127 178 1190T172 1300T163 1378T152 1430V1434H391V1430Q385 1409 380 1378T371 1301T365 1191T362 1042V391Q362 306 364 243T370
133T379 56T391 4V0H152V4ZM273 1887Q331 1834 393 1782Q447 1737 512 1686T642 1592L619 1555Q576 1576 529 1598T437 1642T349 1680T273 1710Q239 1698 198 1681T111 1643T18 1600T-73 1555L-96 1592Q-31 1635 34 1686T153 1782Q215 1834 273 1887Z" />
<glyph unicode="&#xcf;" glyph-name="Idieresis" horiz-adv-x="543" d="M152 4Q158 25 163 56T172 133T178 242T180 391V1042Q180 1127 178 1190T172 1300T163 1378T152 1430V1434H391V1430Q385 1409 380 1378T371 1301T365 1191T362 1042V391Q362 306 364 243T370
133T379 56T391 4V0H152V4ZM-3 1723Q-3 1742 4 1759T23 1788T52 1808T89 1815Q108 1815 125 1808T154 1789T174 1759T181 1723Q181 1704 174 1687T155 1658T125 1638T89 1631Q69 1631 53 1638T24 1657T4 1687T-3 1723ZM365 1723Q365 1742 372 1759T391 1788T421
1808T457 1815Q476 1815 493 1808T522 1789T542 1759T549 1723Q549 1704 542 1687T523 1658T493 1638T457 1631Q438 1631 421 1638T392 1657T372 1687T365 1723Z" />
<glyph unicode="&#xd0;" glyph-name="Eth" horiz-adv-x="1462" d="M-6 791Q22 787 70 787T172 786V1042Q172 1127 170 1191T164 1302T155 1381T143 1434V1438Q166 1437 186 1436Q203 1435 221 1435T250 1434Q269 1434 313 1436T415 1440T533 1444T649 1446Q794
1446 925 1410T1155 1292T1312 1077T1370 750Q1370 611 1340 500T1254 304T1123 159T954 59T756 2T539 -16Q499 -16 443 -14T329 -8T222 -3T143 0V4Q149 25 154 56T164 133T170 242T172 391V694L-18 688L-6 791ZM362 1348Q360 1240 358 1138Q357 1094 357 1048T356
958T355 872T354 799V786Q464 788 538 792T635 801L616 686Q583 687 543 689Q508 691 460 692T354 694Q354 621 355 536T358 367T363 209T369 84Q383 82 406 80T456 76T507 73T549 72Q619 72 692 81T834 117T963 188T1069 306T1141 479T1167 719Q1167 872 1130
991T1022 1193T845 1317T602 1360Q575 1360 541 1359T474 1356T411 1352T362 1348Z" />
<glyph unicode="&#xd1;" glyph-name="Ntilde" horiz-adv-x="1513" d="M199 1434L1229 338V1042Q1229 1127 1227 1190T1221 1300T1212 1378T1200 1430V1434H1378V1430Q1372 1409 1367 1378T1358 1301T1352 1191T1350 1042V-20H1315L285 1075V391Q285 306 287 243T293
133T302 56T313 4V0H135V4Q141 25 146 56T156 133T162 242T164 391V1042Q164 1127 162 1190T156 1300T147 1378T135 1430V1434H199ZM1063 1805Q1040 1762 1020 1731T979 1678T934 1647T879 1637Q853 1637 817 1648T743 1673T671 1698T616 1710Q581 1710 555 1692T504
1631L475 1647Q497 1690 517 1721T558 1774T604 1805T659 1815Q684 1815 720 1804T795 1778T867 1753T922 1741Q957 1741 983 1759T1034 1821L1063 1805V1805Z" />
<glyph unicode="&#xd2;" glyph-name="Ograve" horiz-adv-x="1651" d="M797 1458Q964 1458 1105 1404T1350 1251T1511 1014T1569 709Q1569 614 1547 522T1483 348T1378 197T1237 77T1061 -2T854 -31Q687 -31 546 22T301 174T140 409T82 715Q82 810 104 902T168
1077T272 1229T413 1350T589 1429T797 1458ZM854 59Q965 59 1057 99T1215 215T1319 400T1356 649Q1356 803 1321 934T1215 1162T1041 1313T797 1368Q686 1368 594 1329T436 1214T332 1030T295 782Q295 629 330 497T435 267T610 115T854 59ZM651 1887Q708 1834 770
1782Q823 1737 888 1686T1019 1592L997 1555Q962 1573 925 1589T851 1622T777 1652T709 1678Q632 1706 559 1731L651 1887Z" />
<glyph unicode="&#xd3;" glyph-name="Oacute" horiz-adv-x="1651" d="M797 1458Q964 1458 1105 1404T1350 1251T1511 1014T1569 709Q1569 614 1547 522T1483 348T1378 197T1237 77T1061 -2T854 -31Q687 -31 546 22T301 174T140 409T82 715Q82 810 104 902T168
1077T272 1229T413 1350T589 1429T797 1458ZM854 59Q965 59 1057 99T1215 215T1319 400T1356 649Q1356 803 1321 934T1215 1162T1041 1313T797 1368Q686 1368 594 1329T436 1214T332 1030T295 782Q295 629 330 497T435 267T610 115T854 59ZM1054 1731Q980 1706
904 1678Q871 1666 835 1652T762 1622T688 1590T616 1555L594 1592Q659 1635 723 1686T842 1782Q904 1834 962 1887L1054 1731Z" />
<glyph unicode="&#xd4;" glyph-name="Ocircumflex" horiz-adv-x="1651" d="M797 1458Q964 1458 1105 1404T1350 1251T1511 1014T1569 709Q1569 614 1547 522T1483 348T1378 197T1237 77T1061 -2T854 -31Q687 -31 546 22T301 174T140 409T82 715Q82 810 104 902T168
1077T272 1229T413 1350T589 1429T797 1458ZM854 59Q965 59 1057 99T1215 215T1319 400T1356 649Q1356 803 1321 934T1215 1162T1041 1313T797 1368Q686 1368 594 1329T436 1214T332 1030T295 782Q295 629 330 497T435 267T610 115T854 59ZM825 1887Q883 1834 945
1782Q999 1737 1064 1686T1194 1592L1171 1555Q1128 1576 1081 1598T989 1642T901 1680T825 1710Q791 1698 750 1681T663 1643T570 1600T479 1555L456 1592Q521 1635 586 1686T705 1782Q767 1834 825 1887Z" />
<glyph unicode="&#xd5;" glyph-name="Otilde" horiz-adv-x="1651" d="M797 1458Q964 1458 1105 1404T1350 1251T1511 1014T1569 709Q1569 614 1547 522T1483 348T1378 197T1237 77T1061 -2T854 -31Q687 -31 546 22T301 174T140 409T82 715Q82 810 104 902T168
1077T272 1229T413 1350T589 1429T797 1458ZM854 59Q965 59 1057 99T1215 215T1319 400T1356 649Q1356 803 1321 934T1215 1162T1041 1313T797 1368Q686 1368 594 1329T436 1214T332 1030T295 782Q295 629 330 497T435 267T610 115T854 59ZM1118 1805Q1095 1762
1075 1731T1034 1678T989 1647T934 1637Q908 1637 872 1648T798 1673T726 1698T671 1710Q636 1710 610 1692T559 1631L530 1647Q552 1690 572 1721T613 1774T659 1805T714 1815Q739 1815 775 1804T850 1778T922 1753T977 1741Q1012 1741 1038 1759T1089 1821L1118
1805V1805Z" />
<glyph unicode="&#xd6;" glyph-name="Odieresis" horiz-adv-x="1651" d="M797 1458Q964 1458 1105 1404T1350 1251T1511 1014T1569 709Q1569 614 1547 522T1483 348T1378 197T1237 77T1061 -2T854 -31Q687 -31 546 22T301 174T140 409T82 715Q82 810 104 902T168
1077T272 1229T413 1350T589 1429T797 1458ZM854 59Q965 59 1057 99T1215 215T1319 400T1356 649Q1356 803 1321 934T1215 1162T1041 1313T797 1368Q686 1368 594 1329T436 1214T332 1030T295 782Q295 629 330 497T435 267T610 115T854 59ZM549 1723Q549 1742 556
1759T575 1788T604 1808T641 1815Q660 1815 677 1808T706 1789T726 1759T733 1723Q733 1704 726 1687T707 1658T677 1638T641 1631Q621 1631 605 1638T576 1657T556 1687T549 1723ZM917 1723Q917 1742 924 1759T943 1788T973 1808T1009 1815Q1028 1815 1045 1808T1074
1789T1094 1759T1101 1723Q1101 1704 1094 1687T1075 1658T1045 1638T1009 1631Q990 1631 973 1638T944 1657T924 1687T917 1723Z" />
<glyph unicode="&#xd7;" glyph-name="multiply" horiz-adv-x="1331" d="M737 702L1128 311L1057 240L666 631L274 240L203 311L594 702L203 1094L274 1165L666 774L1057 1165L1128 1094L737 702Z" />
<glyph unicode="&#xd8;" glyph-name="Oslash" horiz-adv-x="1651" d="M367 119Q232 218 157 369T82 715Q82 810 104 902T168 1077T272 1229T413 1350T589 1429T797 1458Q905 1458 1002 1436T1184 1368L1315 1569L1397 1516L1268 1319Q1338 1270 1393 1206T1488
1064T1548 898T1569 709Q1569 614 1547 522T1483 348T1378 197T1237 77T1061 -2T854 -31Q739 -31 637 -7T449 66L303 -156L221 -102L367 119ZM854 59Q965 59 1057 99T1215 215T1319 400T1356 649Q1356 817 1314 957T1188 1196L520 174Q585 118 668 89T854 59ZM295
782Q295 620 333 483T449 246L1116 1264Q1051 1313 973 1340T797 1368Q686 1368 594 1329T436 1214T332 1030T295 782Z" />
<glyph unicode="&#xd9;" glyph-name="Ugrave" horiz-adv-x="1454" d="M1169 1042Q1169 1127 1167 1190T1161 1300T1152 1378T1141 1430V1434H1319V1430Q1313 1409 1308 1378T1299 1301T1293 1191T1290 1042V502Q1290 359 1249 258T1135 93T960 -1T737 -31Q616
-31 512 -3T330 87T208 249T164 492V1042Q164 1127 162 1190T156 1300T147 1378T135 1430V1434H375V1430Q369 1409 364 1378T354 1301T348 1191T346 1042V481Q346 362 381 285T475 162T607 98T758 80Q835 80 909 98T1040 161T1133 284T1169 481V1042ZM588 1887Q645
1834 707 1782Q760 1737 825 1686T956 1592L934 1555Q899 1573 862 1589T788 1622T714 1652T646 1678Q569 1706 496 1731L588 1887Z" />
<glyph unicode="&#xda;" glyph-name="Uacute" horiz-adv-x="1454" d="M1169 1042Q1169 1127 1167 1190T1161 1300T1152 1378T1141 1430V1434H1319V1430Q1313 1409 1308 1378T1299 1301T1293 1191T1290 1042V502Q1290 359 1249 258T1135 93T960 -1T737 -31Q616
-31 512 -3T330 87T208 249T164 492V1042Q164 1127 162 1190T156 1300T147 1378T135 1430V1434H375V1430Q369 1409 364 1378T354 1301T348 1191T346 1042V481Q346 362 381 285T475 162T607 98T758 80Q835 80 909 98T1040 161T1133 284T1169 481V1042ZM997 1731Q923
1706 847 1678Q814 1666 778 1652T705 1622T631 1590T559 1555L537 1592Q602 1635 666 1686T785 1782Q847 1834 905 1887L997 1731Z" />
<glyph unicode="&#xdb;" glyph-name="Ucircumflex" horiz-adv-x="1454" d="M1169 1042Q1169 1127 1167 1190T1161 1300T1152 1378T1141 1430V1434H1319V1430Q1313 1409 1308 1378T1299 1301T1293 1191T1290 1042V502Q1290 359 1249 258T1135 93T960 -1T737 -31Q616
-31 512 -3T330 87T208 249T164 492V1042Q164 1127 162 1190T156 1300T147 1378T135 1430V1434H375V1430Q369 1409 364 1378T354 1301T348 1191T346 1042V481Q346 362 381 285T475 162T607 98T758 80Q835 80 909 98T1040 161T1133 284T1169 481V1042ZM748 1887Q806
1834 868 1782Q922 1737 987 1686T1117 1592L1094 1555Q1051 1576 1004 1598T912 1642T824 1680T748 1710Q714 1698 673 1681T586 1643T493 1600T402 1555L379 1592Q444 1635 509 1686T628 1782Q690 1834 748 1887Z" />
<glyph unicode="&#xdc;" glyph-name="Udieresis" horiz-adv-x="1454" d="M1169 1042Q1169 1127 1167 1190T1161 1300T1152 1378T1141 1430V1434H1319V1430Q1313 1409 1308 1378T1299 1301T1293 1191T1290 1042V502Q1290 359 1249 258T1135 93T960 -1T737 -31Q616
-31 512 -3T330 87T208 249T164 492V1042Q164 1127 162 1190T156 1300T147 1378T135 1430V1434H375V1430Q369 1409 364 1378T354 1301T348 1191T346 1042V481Q346 362 381 285T475 162T607 98T758 80Q835 80 909 98T1040 161T1133 284T1169 481V1042ZM472 1723Q472
1742 479 1759T498 1788T527 1808T564 1815Q583 1815 600 1808T629 1789T649 1759T656 1723Q656 1704 649 1687T630 1658T600 1638T564 1631Q544 1631 528 1638T499 1657T479 1687T472 1723ZM840 1723Q840 1742 847 1759T866 1788T896 1808T932 1815Q951 1815 968
1808T997 1789T1017 1759T1024 1723Q1024 1704 1017 1687T998 1658T968 1638T932 1631Q913 1631 896 1638T867 1657T847 1687T840 1723Z" />
<glyph unicode="&#xdd;" glyph-name="Yacute" horiz-adv-x="1272" d="M727 688V391Q727 306 729 243T735 133T744 56T756 4V0H516V4Q522 25 527 56T536 133T542 242T545 391V668L98 1276Q75 1307 53 1333T10 1378T-26 1411T-51 1430V1434H252Q252 1411 271 1359T342
1235L670 786L991 1255Q1008 1280 1025 1306T1056 1356T1078 1400T1087 1434H1282V1430Q1260 1411 1223 1374T1143 1274L727 688ZM907 1731Q833 1706 757 1678Q724 1666 688 1652T615 1622T541 1590T469 1555L447 1592Q512 1635 576 1686T695 1782Q757 1834 815
1887L907 1731Z" />
<glyph unicode="&#xde;" glyph-name="Thorn" horiz-adv-x="1069" d="M383 1430Q378 1411 373 1385T364 1322T358 1237T354 1124Q391 1127 439 1132T551 1137Q647 1137 728 1112T870 1038T963 919T997 760Q997 651 953 571T832 437T654 358T440 332Q419 332 398
333T354 336V334Q354 291 356 239T362 138T371 53T383 4V0H143V4Q147 12 151 34T158 89T163 159T168 238T171 317T172 391V1042Q172 1127 170 1190T164 1300T155 1378T143 1430V1434H383V1430ZM354 414Q382 409 408 406T459 403Q536 403 598 424T705 489T773 597T797
752Q797 824 780 882T730 982T645 1046T526 1069Q483 1069 451 1066T397 1058Q371 1053 354 1047V1042V414Z" />
<glyph unicode="&#xdf;" glyph-name="germandbls" horiz-adv-x="1051" d="M432 834Q509 865 555 912T627 1011T661 1109T670 1188Q670 1265 652 1313T607 1389T550 1426T494 1436Q468 1436 439 1428T386 1397T345 1333T328 1225V391Q328 306 330 243T336 133T345
56T356 4V0H125V4Q131 25 136 56T145 133T151 242T154 391V1192Q154 1269 178 1328T249 1428T362 1490T514 1511Q570 1511 630 1494T741 1438T823 1336T856 1182Q856 1136 840 1090T791 1001T704 918T578 848Q654 839 725 809T852 726T940 597T973 418Q973 332
944 254T853 115T697 18T473 -18L459 14Q535 14 593 42T691 121T751 246T772 410Q772 497 750 569T685 695T583 777T446 807L432 834Z" />
<glyph unicode="&#xe0;" glyph-name="agrave" horiz-adv-x="1059" d="M74 295Q74 374 106 432T193 531T316 597T459 637T605 657T737 664V715Q737 781 720 829T672 908T598 955T502 971Q466 971 431 965T359 945T280 907T190 846L180 852L248 993Q281 1008 313
1017T378 1033T445 1041T518 1044Q623 1044 697 1019T819 949T889 845T911 717V391Q911 306 913 243T919 133T928 56T940 4V0H719V4Q724 20 726 40T731 88Q710 70 682 51T617 17T536 -8T438 -18Q264 -18 169 63T74 295ZM737 586Q646 585 562 576T414 536T311 451T272
303Q272 185 331 123T494 61Q542 61 581 74T651 108T703 153T735 201Q737 239 737 285T737 391V586ZM544 1477Q601 1424 663 1372Q716 1327 781 1276T912 1182L890 1145Q855 1163 818 1179T744 1212T670 1242T602 1268Q525 1296 452 1321L544 1477Z" />
<glyph unicode="&#xe1;" glyph-name="aacute" horiz-adv-x="1059" d="M74 295Q74 374 106 432T193 531T316 597T459 637T605 657T737 664V715Q737 781 720 829T672 908T598 955T502 971Q466 971 431 965T359 945T280 907T190 846L180 852L248 993Q281 1008 313
1017T378 1033T445 1041T518 1044Q623 1044 697 1019T819 949T889 845T911 717V391Q911 306 913 243T919 133T928 56T940 4V0H719V4Q724 20 726 40T731 88Q710 70 682 51T617 17T536 -8T438 -18Q264 -18 169 63T74 295ZM737 586Q646 585 562 576T414 536T311 451T272
303Q272 185 331 123T494 61Q542 61 581 74T651 108T703 153T735 201Q737 239 737 285T737 391V586ZM862 1321Q788 1296 712 1268Q679 1256 643 1242T570 1212T496 1180T424 1145L402 1182Q467 1225 531 1276T650 1372Q712 1424 770 1477L862 1321Z" />
<glyph unicode="&#xe2;" glyph-name="acircumflex" horiz-adv-x="1059" d="M74 295Q74 374 106 432T193 531T316 597T459 637T605 657T737 664V715Q737 781 720 829T672 908T598 955T502 971Q466 971 431 965T359 945T280 907T190 846L180 852L248 993Q281 1008
313 1017T378 1033T445 1041T518 1044Q623 1044 697 1019T819 949T889 845T911 717V391Q911 306 913 243T919 133T928 56T940 4V0H719V4Q724 20 726 40T731 88Q710 70 682 51T617 17T536 -8T438 -18Q264 -18 169 63T74 295ZM737 586Q646 585 562 576T414 536T311
451T272 303Q272 185 331 123T494 61Q542 61 581 74T651 108T703 153T735 201Q737 239 737 285T737 391V586ZM549 1477Q607 1424 669 1372Q723 1327 788 1276T918 1182L895 1145Q852 1166 805 1188T713 1232T625 1270T549 1300Q515 1288 474 1271T387 1233T294
1190T203 1145L180 1182Q245 1225 310 1276T429 1372Q491 1424 549 1477Z" />
<glyph unicode="&#xe3;" glyph-name="atilde" horiz-adv-x="1059" d="M74 295Q74 374 106 432T193 531T316 597T459 637T605 657T737 664V715Q737 781 720 829T672 908T598 955T502 971Q466 971 431 965T359 945T280 907T190 846L180 852L248 993Q281 1008 313
1017T378 1033T445 1041T518 1044Q623 1044 697 1019T819 949T889 845T911 717V391Q911 306 913 243T919 133T928 56T940 4V0H719V4Q724 20 726 40T731 88Q710 70 682 51T617 17T536 -8T438 -18Q264 -18 169 63T74 295ZM737 586Q646 585 562 576T414 536T311 451T272
303Q272 185 331 123T494 61Q542 61 581 74T651 108T703 153T735 201Q737 239 737 285T737 391V586ZM844 1395Q821 1352 801 1321T760 1268T715 1237T660 1227Q634 1227 598 1238T524 1263T452 1288T397 1300Q362 1300 336 1282T285 1221L256 1237Q278 1280 298
1311T339 1364T385 1395T440 1405Q465 1405 501 1394T576 1368T648 1343T703 1331Q738 1331 764 1349T815 1411L844 1395V1395Z" />
<glyph unicode="&#xe4;" glyph-name="adieresis" horiz-adv-x="1059" d="M74 295Q74 374 106 432T193 531T316 597T459 637T605 657T737 664V715Q737 781 720 829T672 908T598 955T502 971Q466 971 431 965T359 945T280 907T190 846L180 852L248 993Q281 1008
313 1017T378 1033T445 1041T518 1044Q623 1044 697 1019T819 949T889 845T911 717V391Q911 306 913 243T919 133T928 56T940 4V0H719V4Q724 20 726 40T731 88Q710 70 682 51T617 17T536 -8T438 -18Q264 -18 169 63T74 295ZM737 586Q646 585 562 576T414 536T311
451T272 303Q272 185 331 123T494 61Q542 61 581 74T651 108T703 153T735 201Q737 239 737 285T737 391V586ZM273 1313Q273 1332 280 1349T299 1378T328 1398T365 1405Q384 1405 401 1398T430 1379T450 1349T457 1313Q457 1294 450 1277T431 1248T401 1228T365
1221Q345 1221 329 1228T300 1247T280 1277T273 1313ZM641 1313Q641 1332 648 1349T667 1378T697 1398T733 1405Q752 1405 769 1398T798 1379T818 1349T825 1313Q825 1294 818 1277T799 1248T769 1228T733 1221Q714 1221 697 1228T668 1247T648 1277T641 1313Z"
/>
<glyph unicode="&#xe5;" glyph-name="aring" horiz-adv-x="1059" d="M74 295Q74 374 106 432T193 531T316 597T459 637T605 657T737 664V715Q737 781 720 829T672 908T598 955T502 971Q466 971 431 965T359 945T280 907T190 846L180 852L248 993Q281 1008 313
1017T378 1033T445 1041T518 1044Q623 1044 697 1019T819 949T889 845T911 717V391Q911 306 913 243T919 133T928 56T940 4V0H719V4Q724 20 726 40T731 88Q710 70 682 51T617 17T536 -8T438 -18Q264 -18 169 63T74 295ZM737 586Q646 585 562 576T414 536T311 451T272
303Q272 185 331 123T494 61Q542 61 581 74T651 108T703 153T735 201Q737 239 737 285T737 391V586ZM393 1356Q393 1327 403 1303T433 1259T476 1230T530 1219Q558 1219 583 1229T627 1259T656 1302T667 1356Q667 1384 657 1409T627 1453T583 1482T530 1493Q501
1493 477 1483T433 1453T404 1409T393 1356ZM301 1356Q301 1404 319 1445T368 1518T440 1567T530 1585Q578 1585 619 1567T692 1518T741 1446T759 1356Q759 1308 741 1267T692 1194T620 1144T530 1126Q482 1126 441 1144T368 1193T319 1266T301 1356Z" />
<glyph unicode="&#xe6;" glyph-name="ae" horiz-adv-x="1751" d="M74 295Q74 372 104 428T186 525T305 590T447 631T595 652T737 662V715Q737 781 720 829T672 908T598 955T502 971Q466 971 431 965T359 945T280 907T190 846L180 852L248 993Q281 1008 313 1017T378
1033T445 1041T518 1044Q649 1044 732 1005T860 901Q925 967 1014 1004T1204 1042Q1307 1042 1395 1007T1547 904T1649 737T1690 510Q1577 512 1464 513T1229 514Q1142 514 1060 513T911 510Q917 406 943 322T1016 179T1129 87T1280 55Q1338 55 1389 68T1483 106T1558
162T1614 233L1626 227L1552 49Q1498 21 1423 2T1243 -18Q1112 -18 1008 28T836 170Q812 148 776 116T690 54T578 3T438 -18Q264 -18 169 63T74 295ZM494 61Q552 61 598 80T680 130T741 196T784 266Q761 323 749 392T737 543V586Q639 584 555 574T407 533T308 448T272
303Q272 185 331 123T494 61ZM1110 592Q1210 592 1310 592T1493 596Q1484 683 1459 752T1395 869T1303 943T1186 969Q1128 969 1080 944T995 870T937 753T911 594Q956 592 1006 592T1110 592Z" />
<glyph unicode="&#xe7;" glyph-name="ccedilla" horiz-adv-x="1034" d="M842 -285Q842 -324 823 -356T770 -410T691 -445T592 -457Q530 -457 476 -444T375 -406L393 -360Q406 -366 422 -373T457 -387T501 -397T557 -401Q623 -401 665 -369T707 -285Q707 -228 668
-201T571 -174Q562 -174 547 -175T524 -178L584 -16Q472 -10 378 28T215 134T109 298T70 514Q70 627 113 723T234 891T417 1002T645 1042Q701 1042 765 1033T879 1008L950 838L938 831Q913 862 879 887T803 931T715 959T621 969Q543 969 479 942T369 862T298 735T272
563Q272 455 296 362T369 201T491 94T664 55Q710 55 755 66T841 99T916 151T973 219L985 213L911 35Q884 23 849 13T777 -4T701 -14T629 -18H627L588 -129Q600 -127 611 -126T637 -125Q693 -125 732 -139T795 -176T831 -228T842 -285Z" />
<glyph unicode="&#xe8;" glyph-name="egrave" horiz-adv-x="1110" d="M602 -18Q491 -18 394 17T225 119T112 286T70 514Q70 627 108 723T213 891T369 1002T563 1042Q666 1042 754 1007T906 904T1008 737T1049 510Q936 512 823 513T588 514Q501 514 419 513T270
510Q276 406 302 322T375 179T488 87T639 55Q697 55 748 68T842 106T917 162T973 233L985 227L911 49Q857 21 782 2T602 -18ZM469 592Q569 592 669 592T852 596Q843 683 818 752T754 869T662 943T545 969Q487 969 439 944T354 870T296 753T270 594Q315 592 365
592T469 592ZM416 1477Q473 1424 535 1372Q588 1327 653 1276T784 1182L762 1145Q727 1163 690 1179T616 1212T542 1242T474 1268Q397 1296 324 1321L416 1477Z" />
<glyph unicode="&#xe9;" glyph-name="eacute" horiz-adv-x="1110" d="M602 -18Q491 -18 394 17T225 119T112 286T70 514Q70 627 108 723T213 891T369 1002T563 1042Q666 1042 754 1007T906 904T1008 737T1049 510Q936 512 823 513T588 514Q501 514 419 513T270
510Q276 406 302 322T375 179T488 87T639 55Q697 55 748 68T842 106T917 162T973 233L985 227L911 49Q857 21 782 2T602 -18ZM469 592Q569 592 669 592T852 596Q843 683 818 752T754 869T662 943T545 969Q487 969 439 944T354 870T296 753T270 594Q315 592 365
592T469 592ZM804 1321Q730 1296 654 1268Q621 1256 585 1242T512 1212T438 1180T366 1145L344 1182Q409 1225 473 1276T592 1372Q654 1424 712 1477L804 1321Z" />
<glyph unicode="&#xea;" glyph-name="ecircumflex" horiz-adv-x="1110" d="M602 -18Q491 -18 394 17T225 119T112 286T70 514Q70 627 108 723T213 891T369 1002T563 1042Q666 1042 754 1007T906 904T1008 737T1049 510Q936 512 823 513T588 514Q501 514 419 513T270
510Q276 406 302 322T375 179T488 87T639 55Q697 55 748 68T842 106T917 162T973 233L985 227L911 49Q857 21 782 2T602 -18ZM469 592Q569 592 669 592T852 596Q843 683 818 752T754 869T662 943T545 969Q487 969 439 944T354 870T296 753T270 594Q315 592 365
592T469 592ZM555 1477Q613 1424 675 1372Q729 1327 794 1276T924 1182L901 1145Q858 1166 811 1188T719 1232T631 1270T555 1300Q521 1288 480 1271T393 1233T300 1190T209 1145L186 1182Q251 1225 316 1276T435 1372Q497 1424 555 1477Z" />
<glyph unicode="&#xeb;" glyph-name="edieresis" horiz-adv-x="1110" d="M602 -18Q491 -18 394 17T225 119T112 286T70 514Q70 627 108 723T213 891T369 1002T563 1042Q666 1042 754 1007T906 904T1008 737T1049 510Q936 512 823 513T588 514Q501 514 419 513T270
510Q276 406 302 322T375 179T488 87T639 55Q697 55 748 68T842 106T917 162T973 233L985 227L911 49Q857 21 782 2T602 -18ZM469 592Q569 592 669 592T852 596Q843 683 818 752T754 869T662 943T545 969Q487 969 439 944T354 870T296 753T270 594Q315 592 365
592T469 592ZM279 1313Q279 1332 286 1349T305 1378T334 1398T371 1405Q390 1405 407 1398T436 1379T456 1349T463 1313Q463 1294 456 1277T437 1248T407 1228T371 1221Q351 1221 335 1228T306 1247T286 1277T279 1313ZM647 1313Q647 1332 654 1349T673 1378T703
1398T739 1405Q758 1405 775 1398T804 1379T824 1349T831 1313Q831 1294 824 1277T805 1248T775 1228T739 1221Q720 1221 703 1228T674 1247T654 1277T647 1313Z" />
<glyph unicode="&#xec;" glyph-name="igrave" horiz-adv-x="494" d="M160 633Q160 718 158 781T152 891T143 968T131 1020V1024H362V1020Q356 999 351 968T342 891T336 782T334 633V391Q334 306 336 243T342 133T351 56T362 4V0H131V4Q137 25 142 56T151 133T157
242T160 391V633ZM69 1477Q126 1424 188 1372Q241 1327 306 1276T437 1182L415 1145Q380 1163 343 1179T269 1212T195 1242T127 1268Q50 1296 -23 1321L69 1477Z" />
<glyph unicode="&#xed;" glyph-name="iacute" horiz-adv-x="494" d="M160 633Q160 718 158 781T152 891T143 968T131 1020V1024H362V1020Q356 999 351 968T342 891T336 782T334 633V391Q334 306 336 243T342 133T351 56T362 4V0H131V4Q137 25 142 56T151 133T157
242T160 391V633ZM519 1321Q445 1296 369 1268Q336 1256 300 1242T227 1212T153 1180T81 1145L59 1182Q124 1225 188 1276T307 1372Q369 1424 427 1477L519 1321Z" />
<glyph unicode="&#xee;" glyph-name="icircumflex" horiz-adv-x="494" d="M160 633Q160 718 158 781T152 891T143 968T131 1020V1024H362V1020Q356 999 351 968T342 891T336 782T334 633V391Q334 306 336 243T342 133T351 56T362 4V0H131V4Q137 25 142 56T151
133T157 242T160 391V633ZM249 1477Q307 1424 369 1372Q423 1327 488 1276T618 1182L595 1145Q552 1166 505 1188T413 1232T325 1270T249 1300Q215 1288 174 1271T87 1233T-6 1190T-97 1145L-120 1182Q-55 1225 10 1276T129 1372Q191 1424 249 1477Z" />
<glyph unicode="&#xef;" glyph-name="idieresis" horiz-adv-x="494" d="M160 633Q160 718 158 781T152 891T143 968T131 1020V1024H362V1020Q356 999 351 968T342 891T336 782T334 633V391Q334 306 336 243T342 133T351 56T362 4V0H131V4Q137 25 142 56T151 133T157
242T160 391V633ZM-27 1313Q-27 1332 -20 1349T-1 1378T28 1398T65 1405Q84 1405 101 1398T130 1379T150 1349T157 1313Q157 1294 150 1277T131 1248T101 1228T65 1221Q45 1221 29 1228T0 1247T-20 1277T-27 1313ZM341 1313Q341 1332 348 1349T367 1378T397 1398T433
1405Q452 1405 469 1398T498 1379T518 1349T525 1313Q525 1294 518 1277T499 1248T469 1228T433 1221Q414 1221 397 1228T368 1247T348 1277T341 1313Z" />
<glyph unicode="&#xf0;" glyph-name="eth" horiz-adv-x="1219" d="M580 1321Q532 1366 480 1404T369 1479L387 1511Q518 1453 645 1364L868 1509L899 1468L690 1331Q784 1258 867 1170T1012 978T1109 760T1145 520Q1145 409 1112 312T1011 141T845 25T614 -18Q502
-18 403 16T230 115T113 271T70 477Q70 582 112 672T227 828T401 931T616 969Q642 969 673 966T734 958T792 946T840 934Q793 1046 739 1131T618 1284L395 1137L362 1180L580 1321ZM637 55Q708 55 767 81T870 155T937 274T961 432Q961 480 955 529T939 627T915
719T887 801Q869 814 843 829T782 858T701 880T594 889Q523 889 464 865T362 794T294 679T270 522Q270 422 293 337T363 189T477 91T637 55Z" />
<glyph unicode="&#xf1;" glyph-name="ntilde" horiz-adv-x="1163" d="M842 674Q842 806 789 868T647 930Q615 930 575 917T493 881T409 828T330 764L328 633V391Q328 306 330 243T336 133T345 56T356 4V0H125V4Q131 25 136 56T145 133T151 242T154 391V633Q154
718 152 781T146 891T137 968T125 1020V1024H356V1020Q348 995 344 957T334 856Q375 890 422 924T521 984T625 1027T729 1044Q807 1044 861 1017T950 946T1000 846T1016 731V391Q1016 306 1018 243T1024 133T1033 56T1044 4V0H813V4Q819 25 824 56T833 133T839
242T842 391V674ZM875 1395Q852 1352 832 1321T791 1268T746 1237T691 1227Q665 1227 629 1238T555 1263T483 1288T428 1300Q393 1300 367 1282T316 1221L287 1237Q309 1280 329 1311T370 1364T416 1395T471 1405Q496 1405 532 1394T607 1368T679 1343T734 1331Q769
1331 795 1349T846 1411L875 1395V1395Z" />
<glyph unicode="&#xf2;" glyph-name="ograve" horiz-adv-x="1231" d="M70 514Q70 627 112 723T227 891T401 1002T616 1042Q729 1042 828 1005T1002 898T1118 730T1161 508Q1161 405 1125 310T1019 142T848 26T614 -18Q502 -18 403 19T230 125T113 292T70 514ZM637
55Q708 55 767 83T870 164T937 293T961 465Q961 573 938 665T870 825T755 931T594 969Q523 969 464 942T362 862T294 735T270 563Q270 455 293 362T363 201T477 94T637 55ZM441 1477Q498 1424 560 1372Q613 1327 678 1276T809 1182L787 1145Q752 1163 715 1179T641
1212T567 1242T499 1268Q422 1296 349 1321L441 1477Z" />
<glyph unicode="&#xf3;" glyph-name="oacute" horiz-adv-x="1231" d="M70 514Q70 627 112 723T227 891T401 1002T616 1042Q729 1042 828 1005T1002 898T1118 730T1161 508Q1161 405 1125 310T1019 142T848 26T614 -18Q502 -18 403 19T230 125T113 292T70 514ZM637
55Q708 55 767 83T870 164T937 293T961 465Q961 573 938 665T870 825T755 931T594 969Q523 969 464 942T362 862T294 735T270 563Q270 455 293 362T363 201T477 94T637 55ZM845 1321Q771 1296 695 1268Q662 1256 626 1242T553 1212T479 1180T407 1145L385 1182Q450
1225 514 1276T633 1372Q695 1424 753 1477L845 1321Z" />
<glyph unicode="&#xf4;" glyph-name="ocircumflex" horiz-adv-x="1231" d="M70 514Q70 627 112 723T227 891T401 1002T616 1042Q729 1042 828 1005T1002 898T1118 730T1161 508Q1161 405 1125 310T1019 142T848 26T614 -18Q502 -18 403 19T230 125T113 292T70
514ZM637 55Q708 55 767 83T870 164T937 293T961 465Q961 573 938 665T870 825T755 931T594 969Q523 969 464 942T362 862T294 735T270 563Q270 455 293 362T363 201T477 94T637 55ZM614 1477Q672 1424 734 1372Q788 1327 853 1276T983 1182L960 1145Q917 1166
870 1188T778 1232T690 1270T614 1300Q580 1288 539 1271T452 1233T359 1190T268 1145L245 1182Q310 1225 375 1276T494 1372Q556 1424 614 1477Z" />
<glyph unicode="&#xf5;" glyph-name="otilde" horiz-adv-x="1231" d="M70 514Q70 627 112 723T227 891T401 1002T616 1042Q729 1042 828 1005T1002 898T1118 730T1161 508Q1161 405 1125 310T1019 142T848 26T614 -18Q502 -18 403 19T230 125T113 292T70 514ZM637
55Q708 55 767 83T870 164T937 293T961 465Q961 573 938 665T870 825T755 931T594 969Q523 969 464 942T362 862T294 735T270 563Q270 455 293 362T363 201T477 94T637 55ZM909 1395Q886 1352 866 1321T825 1268T780 1237T725 1227Q699 1227 663 1238T589 1263T517
1288T462 1300Q427 1300 401 1282T350 1221L321 1237Q343 1280 363 1311T404 1364T450 1395T505 1405Q530 1405 566 1394T641 1368T713 1343T768 1331Q803 1331 829 1349T880 1411L909 1395V1395Z" />
<glyph unicode="&#xf6;" glyph-name="odieresis" horiz-adv-x="1231" d="M70 514Q70 627 112 723T227 891T401 1002T616 1042Q729 1042 828 1005T1002 898T1118 730T1161 508Q1161 405 1125 310T1019 142T848 26T614 -18Q502 -18 403 19T230 125T113 292T70 514ZM637
55Q708 55 767 83T870 164T937 293T961 465Q961 573 938 665T870 825T755 931T594 969Q523 969 464 942T362 862T294 735T270 563Q270 455 293 362T363 201T477 94T637 55ZM338 1313Q338 1332 345 1349T364 1378T393 1398T430 1405Q449 1405 466 1398T495 1379T515
1349T522 1313Q522 1294 515 1277T496 1248T466 1228T430 1221Q410 1221 394 1228T365 1247T345 1277T338 1313ZM706 1313Q706 1332 713 1349T732 1378T762 1398T798 1405Q817 1405 834 1398T863 1379T883 1349T890 1313Q890 1294 883 1277T864 1248T834 1228T798
1221Q779 1221 762 1228T733 1247T713 1277T706 1313Z" />
<glyph unicode="&#xf7;" glyph-name="divide" horiz-adv-x="1331" d="M143 651V754H1188V651H143ZM567 369Q567 390 574 407T595 438T627 459T666 467Q708 467 736 439T764 369Q764 348 757 330T736 299T705 278T666 270Q624 270 596 298T567 369ZM567 1036Q567
1078 595 1106T666 1135Q687 1135 704 1128T735 1107T756 1075T764 1036Q764 994 736 966T666 938Q645 938 627 945T596 966T575 997T567 1036Z" />
<glyph unicode="&#xf8;" glyph-name="oslash" horiz-adv-x="1231" d="M279 84Q183 152 127 261T70 514Q70 627 112 723T227 891T401 1002T616 1042Q686 1042 749 1028T870 987L987 1165L1069 1112L954 936Q1048 867 1104 759T1161 508Q1161 405 1125 310T1019
142T848 26T614 -18Q546 -18 483 -5T365 35L240 -156L158 -102L279 84ZM270 563Q270 457 292 366T358 207L809 893Q766 928 713 948T594 969Q523 969 464 942T362 862T294 735T270 563ZM637 55Q708 55 767 83T870 164T937 293T961 465Q961 570 940 659T874 815L426
129Q468 94 520 75T637 55Z" />
<glyph unicode="&#xf9;" glyph-name="ugrave" horiz-adv-x="1163" d="M322 350Q322 218 374 156T516 94Q548 94 588 107T670 143T755 196T834 260Q836 289 836 321T836 391V633Q836 718 834 781T828 891T819 968T807 1020V1024H1038V1020Q1032 999 1027 968T1018
891T1012 782T1010 633V391Q1010 306 1012 243T1018 133T1027 56T1038 4V0H807V4Q813 29 819 68T829 170Q788 135 741 101T642 40T538 -3T434 -20Q356 -20 302 7T213 78T163 178T147 293V633Q147 718 145 781T139 891T130 968T119 1020V1024H350V1020Q344 999 339
968T330 891T324 782T322 633V350ZM443 1477Q500 1424 562 1372Q615 1327 680 1276T811 1182L789 1145Q754 1163 717 1179T643 1212T569 1242T501 1268Q424 1296 351 1321L443 1477Z" />
<glyph unicode="&#xfa;" glyph-name="uacute" horiz-adv-x="1163" d="M322 350Q322 218 374 156T516 94Q548 94 588 107T670 143T755 196T834 260Q836 289 836 321T836 391V633Q836 718 834 781T828 891T819 968T807 1020V1024H1038V1020Q1032 999 1027 968T1018
891T1012 782T1010 633V391Q1010 306 1012 243T1018 133T1027 56T1038 4V0H807V4Q813 29 819 68T829 170Q788 135 741 101T642 40T538 -3T434 -20Q356 -20 302 7T213 78T163 178T147 293V633Q147 718 145 781T139 891T130 968T119 1020V1024H350V1020Q344 999 339
968T330 891T324 782T322 633V350ZM831 1321Q757 1296 681 1268Q648 1256 612 1242T539 1212T465 1180T393 1145L371 1182Q436 1225 500 1276T619 1372Q681 1424 739 1477L831 1321Z" />
<glyph unicode="&#xfb;" glyph-name="ucircumflex" horiz-adv-x="1163" d="M322 350Q322 218 374 156T516 94Q548 94 588 107T670 143T755 196T834 260Q836 289 836 321T836 391V633Q836 718 834 781T828 891T819 968T807 1020V1024H1038V1020Q1032 999 1027 968T1018
891T1012 782T1010 633V391Q1010 306 1012 243T1018 133T1027 56T1038 4V0H807V4Q813 29 819 68T829 170Q788 135 741 101T642 40T538 -3T434 -20Q356 -20 302 7T213 78T163 178T147 293V633Q147 718 145 781T139 891T130 968T119 1020V1024H350V1020Q344 999 339
968T330 891T324 782T322 633V350ZM582 1477Q640 1424 702 1372Q756 1327 821 1276T951 1182L928 1145Q885 1166 838 1188T746 1232T658 1270T582 1300Q548 1288 507 1271T420 1233T327 1190T236 1145L213 1182Q278 1225 343 1276T462 1372Q524 1424 582 1477Z"
/>
<glyph unicode="&#xfc;" glyph-name="udieresis" horiz-adv-x="1163" d="M322 350Q322 218 374 156T516 94Q548 94 588 107T670 143T755 196T834 260Q836 289 836 321T836 391V633Q836 718 834 781T828 891T819 968T807 1020V1024H1038V1020Q1032 999 1027 968T1018
891T1012 782T1010 633V391Q1010 306 1012 243T1018 133T1027 56T1038 4V0H807V4Q813 29 819 68T829 170Q788 135 741 101T642 40T538 -3T434 -20Q356 -20 302 7T213 78T163 178T147 293V633Q147 718 145 781T139 891T130 968T119 1020V1024H350V1020Q344 999 339
968T330 891T324 782T322 633V350ZM306 1313Q306 1332 313 1349T332 1378T361 1398T398 1405Q417 1405 434 1398T463 1379T483 1349T490 1313Q490 1294 483 1277T464 1248T434 1228T398 1221Q378 1221 362 1228T333 1247T313 1277T306 1313ZM674 1313Q674 1332
681 1349T700 1378T730 1398T766 1405Q785 1405 802 1398T831 1379T851 1349T858 1313Q858 1294 851 1277T832 1248T802 1228T766 1221Q747 1221 730 1228T701 1247T681 1277T674 1313Z" />
<glyph unicode="&#xfd;" glyph-name="yacute" horiz-adv-x="1006" d="M712 12L360 782Q341 826 319 866T278 939T243 992T223 1020V1024H485V1020Q483 1015 482 1005T481 987Q481 956 490 919T526 825L802 225L1054 817Q1070 854 1086 898T1103 987Q1103 1000
1101 1008T1097 1020V1024H1277V1020Q1259 1001 1232 953T1173 831L696 -305Q680 -342 664 -386T647 -475Q647 -488 649 -496T653 -508V-512H466V-508Q485 -489 512 -442T571 -322L712 12ZM794 1321Q720 1296 644 1268Q611 1256 575 1242T502 1212T428 1180T356
1145L334 1182Q399 1225 463 1276T582 1372Q644 1424 702 1477L794 1321Z" />
<glyph unicode="&#xfe;" glyph-name="thorn" horiz-adv-x="1196" d="M154 1104Q154 1189 152 1252T146 1362T137 1439T125 1491V1495H356V1491Q350 1470 345 1439T336 1362T330 1253T328 1104V954Q388 992 462 1018T629 1044Q740 1044 831 1007T988 899T1090 730T1126
508Q1126 405 1091 310T987 142T818 26T588 -18Q510 -18 446 -6T328 25V-121Q328 -206 330 -269T336 -379T345 -456T356 -508V-512H125V-508Q131 -487 136 -456T145 -379T151 -270T154 -121V1104ZM594 969Q560 969 524 961T453 935T385 894T328 838V129Q348 114
373 101T429 78T500 61T588 55Q666 55 729 83T835 164T902 293T926 465Q926 573 908 665T851 825T748 931T594 969Z" />
<glyph unicode="&#xff;" glyph-name="ydieresis" horiz-adv-x="1006" d="M712 12L360 782Q341 826 319 866T278 939T243 992T223 1020V1024H485V1020Q483 1015 482 1005T481 987Q481 956 490 919T526 825L802 225L1054 817Q1070 854 1086 898T1103 987Q1103 1000
1101 1008T1097 1020V1024H1277V1020Q1259 1001 1232 953T1173 831L696 -305Q680 -342 664 -386T647 -475Q647 -488 649 -496T653 -508V-512H466V-508Q485 -489 512 -442T571 -322L712 12ZM259 1313Q259 1332 266 1349T285 1378T314 1398T351 1405Q370 1405 387
1398T416 1379T436 1349T443 1313Q443 1294 436 1277T417 1248T387 1228T351 1221Q331 1221 315 1228T286 1247T266 1277T259 1313ZM627 1313Q627 1332 634 1349T653 1378T683 1398T719 1405Q738 1405 755 1398T784 1379T804 1349T811 1313Q811 1294 804 1277T785
1248T755 1228T719 1221Q700 1221 683 1228T654 1247T634 1277T627 1313Z" />
<glyph unicode="&#x2013;" glyph-name="endash" horiz-adv-x="1024" d="M61 477V580H963V477H61Z" />
<glyph unicode="&#x2014;" glyph-name="emdash" horiz-adv-x="2048" d="M0 477V580H2048V477H0Z" />
<glyph unicode="&#x2018;" glyph-name="quoteleft" horiz-adv-x="356" d="M276 1124Q276 1084 248 1057T178 1030Q138 1030 110 1061T82 1139Q82 1173 97 1214T138 1297T196 1380T262 1458L289 1436Q244 1383 214 1329T178 1223Q218 1220 247 1193T276 1124Z" />
<glyph unicode="&#x2019;" glyph-name="quoteright" horiz-adv-x="356" d="M70 1364Q70 1404 98 1431T168 1458Q208 1458 236 1427T264 1350Q264 1315 248 1274T207 1191T149 1108T84 1030L57 1053Q102 1105 132 1159T168 1266Q128 1269 99 1295T70 1364Z" />
<glyph unicode="&#x201a;" glyph-name="quotesinglbase" horiz-adv-x="356" d="M86 100Q86 141 114 168T184 195Q204 195 222 187T253 164T273 129T281 86Q281 51 265 11T224 -72T166 -155T100 -233L74 -211Q119 -158 148 -105T184 2Q144 5 115 31T86 100Z" />
<glyph unicode="&#x201c;" glyph-name="quotedblleft" horiz-adv-x="643" d="M276 1124Q276 1084 248 1057T178 1030Q138 1030 110 1061T82 1139Q82 1173 97 1214T138 1297T196 1380T262 1458L289 1436Q244 1383 214 1329T178 1223Q218 1220 247 1193T276 1124ZM563
1124Q563 1084 535 1057T465 1030Q425 1030 397 1061T369 1139Q369 1173 384 1214T425 1297T483 1380T549 1458L575 1436Q530 1383 501 1329T465 1223Q505 1220 534 1193T563 1124Z" />
<glyph unicode="&#x201d;" glyph-name="quotedblright" horiz-adv-x="643" d="M356 1364Q356 1404 384 1431T455 1458Q495 1458 523 1427T551 1350Q551 1315 535 1274T494 1191T436 1108T371 1030L344 1053Q389 1105 418 1159T455 1266Q414 1269 385 1295T356
1364ZM70 1364Q70 1404 98 1431T168 1458Q208 1458 236 1427T264 1350Q264 1315 248 1274T207 1191T149 1108T84 1030L57 1053Q102 1105 132 1159T168 1266Q128 1269 99 1295T70 1364Z" />
<glyph unicode="&#x201e;" glyph-name="quotedblbase" horiz-adv-x="643" d="M373 100Q373 141 401 168T471 195Q491 195 508 187T539 164T559 129T567 86Q567 51 551 11T510 -72T452 -155T387 -233L360 -211Q405 -158 435 -105T471 2Q431 5 402 31T373 100ZM86
100Q86 141 114 168T184 195Q204 195 222 187T253 164T273 129T281 86Q281 51 265 11T224 -72T166 -155T100 -233L74 -211Q119 -158 148 -105T184 2Q144 5 115 31T86 100Z" />
<glyph unicode="&#x2022;" glyph-name="bullet" horiz-adv-x="1133" d="M307 766Q307 820 328 867T384 949T467 1004T567 1024Q619 1024 666 1003T748 947T804 865T825 766Q825 714 805 667T750 584T668 527T565 506Q511 506 464 527T382 583T327 666T307 766Z" />
<glyph unicode="&#x2039;" glyph-name="guilsinglleft" horiz-adv-x="563" d="M82 537Q90 543 110 561T159 607T223 668T295 741T369 820T438 901L475 874Q445 831 416 785T361 694T313 608T274 532Q291 498 313 457T360 371T415 280T475 190L438 164Q406 203
369 244T295 323T223 395T160 457T111 502T82 528V537Z" />
<glyph unicode="&#x203a;" glyph-name="guilsinglright" horiz-adv-x="563" d="M481 528Q473 521 453 503T404 458T340 397T268 324T194 245T125 164L88 190Q118 233 147 279T202 370T250 456T289 532Q272 566 250 607T203 693T148 784T88 874L125 901Q157 861
194 821T268 742T340 670T404 608T453 562T481 537V528Z" />
</font>
</defs>
</svg>
